Торрент файл
скачать торрент магнет ссылка Добавлен: 05 июл 2014, 14:13
Размер: 9.24 ГБ
Сидеров: 596
Личеров: 14
Автор

СообщениеДобавлено: 05 июл 2014, 14:13 

Не в сети
Зам. Админа
Аватара пользователя
Дата регистрации:
02 дек 2010, 12:39
Спасибо: 12460 / 214
Сообщения: 27968
Рио 2 / Rio 2


Год выпуска: 2014
Страна: США
Производство: 20th Century Fox Animation, Blue Sky Studios
Слоган: «It's on in the Amazon»
Жанр: мультфильм, комедия, приключения, семейный
Продолжительность: 01:41:11
Перевод: Профессиональный (полное дублирование) Blu-ray CEE
Субтитры: Русский {Forced, Full}, украинские, английские {Full, Full-colored}
Режиссер: Карлос Салдана / Carlos Saldanha
Сценарий: Карлос Салдана / Carlos Saldanha, Дженни Бикс / Jenny Bicks, Йони Бреннер / Yoni Brenner, Карлос Коткин / Carlos Kotkin, Дон Раймер / Don Rhymer
Продюсер: Брюс Андерсон / Bruce Anderson, Джон С. Донкин / John C. Donkin, Крис Уэдж / Chris Wedge
Оператор: Ренато Фалькао / Renato Falcão
Композитор: Джон Пауэлл / John Powell
В ролях: Энн Хэтэуэй, Лесли Манн, Джейми Фокс, Джесси Айзенберг, Родриго Санторо, Энди Гарсиа, Трэйси Морган, Уилл Ай Эм, Джемейн Клемент, Кристин Ченоуэт

Дублёры: Татьяна Шилина (Jewel), Павел Деревянко (Blu), Олег Куценко (Nigel), Ульяна Иващенко (Carla), Илья Колесников (Nico), Сергей Чихачев (Eduardo), Борис Быстров, Елена Шульман, Ирина Савина, Лариса Некипелова, Никита Прозоровский (Rafael), Марианна Шульц (Linda)

Бюджет: $103 000 000
Сборы в США: $128 412 377
Сборы в России: $26 655 475
Сборы в мире: $457 612 377

Мировая премьера: 20 марта 2014
Премьера (РФ): 20 марта 2014, «Двадцатый Век Фокс СНГ» 3D
Релиз на DVD: 10 июля 2014, «Двадцатый Век Фокс СНГ»
Релиз на Blu-ray: 10 июля 2014, «Двадцатый Век Фокс СНГ»

Описание:Голубчик, Жемчужинка и их трое детей живут счастливой жизнью в волшебном городе Рио-де-Жанейро. Когда Жемчужинка решает, что их детям нужно научиться жить как настоящим птицам, она настаивает на авантюрной поездке в дебри реки Амазонки. Там, пытаясь вписаться в новое окружение, Голубчик начинает беспокоиться, что может потерять Жемчужинку и детей, идущих на зов дикой природы.


MPAA: G - Нет возрастных ограничений
Формат: Matroska
Видео: 1920x798 at 23.976 fps, x264@L4.1, ~9700 kbps avg
Аудио#1: Russian: 48 kHz, DTS, 3/2 (L,C,R,l,r) + LFE ch, ~768 kbps avg |Дубляж, Blu-ray CEE|
Аудио#2: Russian: 48 kHz, AC3, 3/2 (L,C,R,l,r) + LFE ch, ~640 kbps avg |Дубляж, Blu-ray CEE|
Аудио#3: Ukrainian: 48 kHz, AC3, 3/2 (L,C,R,l,r) + LFE ch, ~448 kbps avg |Дубляж, Blu-ray CEE|
Аудио#4: English: 48 kHz, DTS-ES, 3/2 (L,C,R,l,r) + LFE ch, ~1536 kbps

На одном из постеров к фильму около 150 попугаев вида голубой ара формируют в небе большую цифру 2. Это количество отражает реальную картину популяции вида на 2014 год (большинство из этих птиц находится в неволе).
[*]Этот фильм стал последним для сценариста Дона Раймера.
General
Unique ID : 253879283103986347743239493813541742683 (0xBEFF5F11615EF4D68F2F58D48A2B285B)
Complete name : Рио.2-Rio.2.(2014).BDRip.[1080p].mkv
Format : Matroska
Format version : Version 2
File size : 9.24 GiB
Duration : 1h 41mn
Overall bit rate : 13.1 Mbps
Movie name : Rio 2 (2014)
Encoded date : UTC 2014-07-04 02:39:48
Writing application : mkvmerge v5.7.0 ('The Whirlwind') built on Aug 7 2012 14:11:40
Writing library : libebml v1.2.3 + libmatroska v1.3.0
Attachment : Yes

Video
ID : 1
Format : AVC
Format/Info : Advanced Video Codec
Format profile : High@L4.1
Format settings, CABAC : Yes
Format settings, ReFrames : 5 frames
Codec ID : V_MPEG4/ISO/AVC
Duration : 1h 41mn
Bit rate : 9 700 Kbps
Width : 1 920 pixels
Height : 798 pixels
Display aspect ratio : 2.40:1
Frame rate mode : Constant
Frame rate : 23.976 fps
Color space : YUV
Chroma subsampling : 4:2:0
Bit depth : 8 bits
Scan type : Progressive
Bits/(Pixel*Frame) : 0.264
Stream size : 6.67 GiB (72%)
Title : Рио.2-Rio.2.(2014).BDRip.[1080p]
Writing library : x264 core 142 r2431 ac76440
Encoding settings : cabac=1 / ref=5 / deblock=1:-3:-3 / analyse=0x3:0x113 / me=umh / subme=10 / psy=1 / psy_rd=1.00:0.05 / mixed_ref=1 / me_range=32 / chroma_me=1 / trellis=2 / 8x8dct=1 / cqm=0 / deadzone=21,11 / fast_pskip=0 / chroma_qp_offset=-2 / threads=18 / lookahead_threads=1 / sliced_threads=0 / nr=0 / decimate=1 / interlaced=0 / bluray_compat=0 / constrained_intra=0 / bframes=5 / b_pyramid=2 / b_adapt=2 / b_bias=0 / direct=3 / weightb=1 / open_gop=0 / weightp=2 / keyint=250 / keyint_min=23 / scenecut=40 / intra_refresh=0 / rc=2pass / mbtree=0 / bitrate=9700 / ratetol=1.0 / qcomp=0.70 / qpmin=0 / qpmax=69 / qpstep=4 / cplxblur=20.0 / qblur=0.5 / ip_ratio=1.40 / pb_ratio=1.30 / aq=2:0.90
Language : English
Default : Yes
Forced : No

Audio #1
ID : 2
Format : DTS
Format/Info : Digital Theater Systems
Mode : 16
Format settings, Endianness : Big
Codec ID : A_DTS
Duration : 1h 41mn
Bit rate mode : Constant
Bit rate : 768 Kbps
Channel(s) : 6 channels
Channel positions : Front: L C R, Side: L R, LFE
Sampling rate : 48.0 KHz
Bit depth : 24 bits
Compression mode : Lossy
Stream size : 556 MiB (6%)
Title : DTS 5.1 / 768 kbps / Dub (Blu-ray CEE)
Language : Russian
Default : Yes
Forced : No

Audio #2
ID : 3
Format : AC-3
Format/Info : Audio Coding 3
Mode extension : CM (complete main)
Format settings, Endianness : Big
Codec ID : A_AC3
Duration : 1h 41mn
Bit rate mode : Constant
Bit rate : 640 Kbps
Channel(s) : 6 channels
Channel positions : Front: L C R, Side: L R, LFE
Sampling rate : 48.0 KHz
Bit depth : 16 bits
Compression mode : Lossy
Stream size : 463 MiB (5%)
Title : AC3 5.1 / 640 kbps / Dub (Blu-ray CEE)
Language : Russian
Default : No
Forced : No

Audio #3
ID : 4
Format : AC-3
Format/Info : Audio Coding 3
Mode extension : CM (complete main)
Format settings, Endianness : Big
Codec ID : A_AC3
Duration : 1h 41mn
Bit rate mode : Constant
Bit rate : 448 Kbps
Channel(s) : 6 channels
Channel positions : Front: L C R, Side: L R, LFE
Sampling rate : 48.0 KHz
Bit depth : 16 bits
Compression mode : Lossy
Stream size : 324 MiB (3%)
Title : AC3 5.1 / 448 kbps / Dub (Blu-ray CEE)
Language : Ukrainian
Default : No
Forced : No

Audio #4
ID : 5
Format : DTS
Format/Info : Digital Theater Systems
Format profile : ES
Mode : 16
Format settings, Endianness : Big
Codec ID : A_DTS
Duration : 1h 41mn
Bit rate mode : Constant
Bit rate : 1 509 Kbps
Channel(s) : 6 channels
Channel positions : Front: L C R, Side: L R, LFE
Sampling rate : 48.0 KHz
Bit depth : 24 bits
Compression mode : Lossy
Stream size : 1.07 GiB (12%)
Title : DTS 5.1 / 1536 kbps / Original
Language : English
Default : No
Forced : No

Text #1
ID : 6
Format : UTF-8
Codec ID : S_TEXT/UTF8
Codec ID/Info : UTF-8 Plain Text
Title : Forced
Language : Russian
Default : Yes
Forced : No

Text #2
ID : 7
Format : UTF-8
Codec ID : S_TEXT/UTF8
Codec ID/Info : UTF-8 Plain Text
Title : Full
Language : Russian
Default : No
Forced : No

Text #3
ID : 8
Format : UTF-8
Codec ID : S_TEXT/UTF8
Codec ID/Info : UTF-8 Plain Text
Title : Full
Language : Ukrainian
Default : No
Forced : No

Text #4
ID : 9
Format : UTF-8
Codec ID : S_TEXT/UTF8
Codec ID/Info : UTF-8 Plain Text
Title : Full
Language : English
Default : No
Forced : No

Text #5
ID : 10
Format : UTF-8
Codec ID : S_TEXT/UTF8
Codec ID/Info : UTF-8 Plain Text
Title : Full (Colored)
Language : English
Default : No
Forced : No

Menu
00:00:00.000 : en:00:00:00.000
00:03:10.816 : en:00:03:10.816
00:05:14.314 : en:00:05:14.314
00:08:49.362 : en:00:08:49.362
00:13:02.240 : en:00:13:02.240
00:17:36.305 : en:00:17:36.305
00:19:19.408 : en:00:19:19.408
00:22:30.349 : en:00:22:30.349
00:26:48.690 : en:00:26:48.690
00:29:00.155 : en:00:29:00.155
00:30:59.691 : en:00:30:59.691
00:33:46.566 : en:00:33:46.566
00:36:34.192 : en:00:36:34.192
00:39:20.233 : en:00:39:20.233
00:41:32.657 : en:00:41:32.657
00:45:05.119 : en:00:45:05.119
00:47:23.090 : en:00:47:23.090
00:49:58.162 : en:00:49:58.162
00:52:05.456 : en:00:52:05.456
00:55:38.919 : en:00:55:38.919
00:58:10.904 : en:00:58:10.904
01:02:11.394 : en:01:02:11.394
01:04:38.083 : en:01:04:38.083
01:07:03.937 : en:01:07:03.937
01:09:18.196 : en:01:09:18.196
01:10:21.342 : en:01:10:21.342
01:15:17.763 : en:01:15:17.763
01:17:00.157 : en:01:17:00.157
01:21:41.855 : en:01:21:41.855
01:25:24.619 : en:01:25:24.619
01:29:42.711 : en:01:29:42.711
01:32:27.959 : en:01:32:27.959




реклама партнёра


Вернуться к началу
 Профиль  
 
   Похожие торренты   Автор   Торрент   Размер 
В этой теме нет новых непрочитанных сообщений. Рио 2 / Rio 2 ( Карлос Салдана) [2014, мультфильм, комедия, приключения, семейный, BDRip 720p | Лицензия]

Nickolas3435

398 | 10

6.12 ГБ

В этой теме нет новых непрочитанных сообщений. Рио 2 / Rio 2 (Карлос Салдана) [2014, Мультфильм, комедия, приключения, семейный, DVDRip] Dub Звук с TS

Nickolas3435

116 | 3

1.37 ГБ

В этой теме нет новых непрочитанных сообщений. Рио 2 / Rio 2 [Мультфильм, комедия, приключения, семейный, 2014] BDRip 1080p, Dub+Sub [Лицензия | 3D-Video]

Dracon

607 | 32

7.63 ГБ

В этой теме нет новых непрочитанных сообщений. Приключения мистера Пибоди и Шермана / Mr. Peabody & Sherman [Мультфильм, Фантастика, Комедия, Приключения, Семейный, 2014] BDRip 1080p, Dub+Sub [лицензия | 3D-Video]

Dracon

140 | 9

9.22 ГБ

В этой теме нет новых непрочитанных сообщений. Как приручить дракона 2 / How to Train Your Dragon 2 [мультфильм, фэнтези, комедия, приключения, семейный, 2014] BDRip 1080p, Dub+Sub [лицензия]

Dracon

342 | 10

9.68 ГБ

В этой теме нет новых непрочитанных сообщений. Лего. Фильм / The Lego Movie [мультфильм, фэнтези, комедия, приключения, семейный, 2014] BDRip 1080p, Dub+Sub [Лицензия]

Dracon

262 | 14

7.66 ГБ

В этой теме нет новых непрочитанных сообщений. Как приручить дракона 2 / How to Train Your Dragon 2 (Дин ДеБлуа) [мультфильм, фэнтези, комедия, приключения, семейный, 2014] BDRip 1080p, Dub+Sub [лицензия | 3D Video]

Dracon

658 | 16

7.44 ГБ


Начать новую тему Ответить на тему  [ 1 сообщение ] 




Для Мосгорсуда, Роскомнадзора и рекламодателей:: mosgorsud-torrent[собачка]yandex.ru