Торрент файл
скачать торрент магнет ссылка Добавлен: 03 июл 2014, 22:44
Размер: 1.46 ГБ
Сидеров: 26
Личеров: 3
Статус: (salma3)
Автор

СообщениеДобавлено: 03 июл 2014, 22:44 

Не в сети
Супермодератор
Аватара пользователя
Дата регистрации:
15 фев 2012, 16:44
Возраст: 27
Спасибо: 5130 / 2089
Сообщения: 17350
Путешествие в Эльдорадо / Johan Padan a la descoverta de le Americhe

Год выпуска: 2002
Жанр: мультфильм, драма, комедия
Режиссер: Джулио Чинголи / Giulio Cingoli

В ролях: Фиорелло, Дарио Фо

Описание:
[color=darkgreen]Мультфильм снят по произведению лауреата Нобелевской премии — Дарио Фо. Это рассказ о Йохане Падане, который в начале 1500 года отправляется в Америку, где становится зачинщиком борьбы местного населения с испанцами за свободу и независимость.



Страна: Италия, Франция
Продолжительность: 01:21:29
Перевод: Профессиональный (многоголосый, закадровый)

Файл
Качество: DVDRip
Формат файла: AVI
Видео кодек: XviD
Аудио кодек: AC3
Видео: 720x376 (1.91:1), 25 fps, XviD build 50 ~1980 kbps avg, 0.29 bit/pixel
Аудио1: Русский: 48 kHz, AC3 Dolby Digital, 2/0 (L,R) ch, ~384.00 kbps avg
Аудио2: Итальянский: 48 kHz, AC3 Dolby Digital, 2/0 (L,R) ch, ~192.00 kbps avg

General
Complete name : C:\Users\X666\Desktop\Eldorado2002\Johan_Padan_a_la_descoverta_de_le_Americhe_DVDRip.avi
Format : AVI
Format/Info : Audio Video Interleave
File size : 1.46 GiB
Duration : 1h 21mn
Overall bit rate : 2 572 Kbps
Movie name : Johan Padan a la descoverta de le Americhe [ripped by domin8]
Genre : Child's
Writing application : VirtualDubMod 1.5.10.3 | http://www.virtualdub-fr.org || (build 2550/release)
Writing library : VirtualDubMod build 2550/release
Original source form/Name : Cartoon
Video #0
ID : 0
Format : MPEG-4 Visual
Format profile : Advanced Simple@L5
Format settings, BVOP : Yes
Format settings, QPel : No
Format settings, GMC : No warppoints
Format settings, Matrix : Default (H.263)
Codec ID : XVID
Codec ID/Hint : XviD
Duration : 1h 21mn
Bit rate : 1 982 Kbps
Width : 720 pixels
Height : 376 pixels
Display aspect ratio : 1.915
Frame rate : 25.000 fps
Color space : YUV
Chroma subsampling : 4:2:0
Bit depth : 8 bits
Scan type : Progressive
Bits/(Pixel*Frame) : 0.293
Stream size : 1.13 GiB (77%)
Writing library : XviD 1.2.1 (UTC 2008-12-04)
Audio #1
ID : 1
Format : AC-3
Format/Info : Audio Coding 3
Mode extension : CM (complete main)
Codec ID : 2000
Duration : 1h 21mn
Bit rate mode : Constant
Bit rate : 384 Kbps
Channel(s) : 2 channels
Channel positions : Front: L R
Sampling rate : 48.0 KHz
Bit depth : 16 bits
Stream size : 224 MiB (15%)
Alignment : Split accross interleaves
Interleave, duration : 40 ms (1.00 video frame)
Interleave, preload duration : 500 ms
Title : rus
Audio #2
ID : 2
Format : AC-3
Format/Info : Audio Coding 3
Mode extension : CM (complete main)
Codec ID : 2000
Duration : 1h 21mn
Bit rate mode : Constant
Bit rate : 192 Kbps
Channel(s) : 2 channels
Channel positions : Front: L R
Sampling rate : 48.0 KHz
Bit depth : 16 bits
Stream size : 112 MiB (7%)
Alignment : Split accross interleaves
Interleave, duration : 40 ms (1.00 video frame)
Interleave, preload duration : 500 ms
Title : ita


_________________



реклама партнёра


Вернуться к началу
 Профиль Отправить личное сообщение  
 
   Похожие торренты   Автор   Торрент   Размер 
В этой теме нет новых непрочитанных сообщений. Великолепие Греции [Документальный, путешествие, туризм, культура, 2002] DVDRip, Dub

salma3

6 | 3

1.66 ГБ

В этой теме нет новых непрочитанных сообщений. Йон Фальк. 107 патриотов / Johan Falk. De 107 patrioterna (Андерс Нильссон / Anders Nilsson) [2012г., криминальная драма, DVDRip] Sub

Alfredovich

5 | 3

1.19 ГБ

В этой теме нет новых непрочитанных сообщений. Йон Фальк. Детские игры / Johan Falk. Barninfiltratoren (Рихард Хольм / Richard Holm) [2012г., криминальная драма, DVDRip] Sub

Alfredovich

1 | 2

656.99 МБ

В этой теме нет новых непрочитанных сообщений. Йон Фальк. Ограбление века / Johan Falk. Alla rans moder (Андерс Нильссон / Anders Nilsson) [2012г., криминальная драма, DVDRip] Sub

Alfredovich

13 | 6

1.36 ГБ

В этой теме нет новых непрочитанных сообщений. Путешествие в медовый месяц / Honeymoon Travels Pvt. Ltd. [драма, мелодрама, комедия, 2007] DVDRip, Mvo [Red Media]

salma3

37 | 4

1.46 ГБ

В этой теме нет новых непрочитанных сообщений. Путешествие в машине времени / Time After Time [фантастика, триллер, драма, мелодрама, комедия, приключения, 1979] DVDRip, Mvo+Dvo

salma3

17 | 5

1.46 ГБ

В этой теме нет новых непрочитанных сообщений. Юхан Фальк 9 Ограбление века / Johan Falk: Alla råns moder (Андерс Нильсон / Anders Nilsson) [2012г., боевик, триллер, криминал, DVDRip] VO

Alfredovich

16 | 7

1.36 ГБ


Начать новую тему Ответить на тему  [ 1 сообщение ] 




Для Мосгорсуда, Роскомнадзора и рекламодателей:: mosgorsud-torrent[собачка]yandex.ru