Торрент файл
скачать торрент магнет ссылка Добавлен: 02 июл 2014, 09:53
Размер: 21.94 ГБ
Сидеров: 21
Личеров: 2
Статус: (Dracon)
Автор

СообщениеДобавлено: 02 июл 2014, 09:53 

Не в сети
Зам. Админа
Аватара пользователя
Дата регистрации:
02 дек 2010, 12:39
Спасибо: 12623 / 214
Сообщения: 28012
Год выхода: 2014
Жанр: мультфильм, комедия, приключения
Режиссер: Карлос Салдана
В ролях: Энн Хэтэуэй, Джесси Айзенберг, Джейк Т. Остин, Карлиньюс Браун, Кристин Ченоуэт, Джемейн Клемент, Джим Конрой, Рэйчел Кроу, Бернардо де Паула, Нола Донкин

Сюжет фильма:
Голубчик, Жемчужинка и их трое детей живут счастливой жизнью в волшебном городе Рио-де-Жанейро. Когда Жемчужинка решает, что их детям нужно научиться жить как настоящим птицам, она настаивает на авантюрной поездке в дебри реки Амазонки. Там, пытаясь вписаться в новое окружение, Голубчик начинает беспокоиться, что может потерять Жемчужинку и детей, идущих на зов дикой природы.

«It's on in the Amazon»

Выпущено: США
Продолжительность: 01:41:11
Формат: BDAV
Источник: Rio.2.2014.COMPLETE.BluRay-TRUEDEF
Видео: 1920x1080 at 23.976 fps, MPEG-4 AVC, ~24225 kbps avg
Aудио#1: Russian: 48 kHz, AC3, 3/2 (L,C,R,l,r) + LFE ch, ~384.00 kbps avg |Дубляж, iTunes Russia|
Aудио#2: Ukrainian: 48 kHz, AC3, 2/0 (L,R) ch, ~192.00 kbps avg |Дубляж, iTunes Russia|
Аудио#3: English: 48 kHz/24-bit, DTS-HD MA 7.1, ~4544.00 kbps avg
Субтитры: Russian (Forced, iTunes), Russian (iTunes), Ukrainian (iTunes), English

Общее
Идентификатор : 1 (0x1)
Полное имя : ...RIO_2_REMUX_HDCLUBBDMVSTREAM�0000.m2ts
Формат : BDAV
Формат/Информация : Blu-ray Video
Размер файла : 21,9 Гбайт
Продолжительность : 1 ч. 41 м.
Режим общего битрейта : Переменный
Общий поток : 31,0 Мбит/сек
Максимальный общий битрейт : 35,5 Мбит/сек

Видео
Идентификатор : 4113 (0x1011)
Идентификатор меню : 1 (0x1)
Формат : AVC
Формат/Информация : Advanced Video Codec
Профиль формата : High@L4.1
Параметр CABAC формата : Да
Параметр ReFrames формата : 4 кадра
Идентификатор кодека : 27
Продолжительность : 1 ч. 41 м.
Вид битрейта : Переменный
Максимальный битрейт : 33,2 Мбит/сек
Ширина : 1920 пикселей
Высота : 1080 пикселей
Соотношение сторон : 16:9
Частота кадров : 23,976 кадра/сек
Цветовое пространство : YUV
Субдискретизация насыщенности : 4:2:0
Битовая глубина : 8 бит
Тип развёртки : Прогрессивная

Аудио #1
Идентификатор : 4352 (0x1100)
Идентификатор меню : 1 (0x1)
Формат : AC-3
Формат/Информация : Audio Coding 3
Расширение режима : CM (complete main)
Параметр Endianness формата : Big
Идентификатор кодека : 129
Продолжительность : 1 ч. 41 м.
Вид битрейта : Постоянный
Битрейт : 384 Кбит/сек
Каналы : 6 каналов
Расположение каналов : Front: L C R, Side: L R, LFE
Частота : 48,0 КГц
Битовая глубина : 16 бит
Метод сжатия : С потерями
Размер потока : 278 Мбайт (1%)

Аудио #2
Идентификатор : 4353 (0x1101)
Идентификатор меню : 1 (0x1)
Формат : AC-3
Формат/Информация : Audio Coding 3
Расширение режима : CM (complete main)
Параметр Endianness формата : Big
Идентификатор кодека : 129
Продолжительность : 1 ч. 41 м.
Вид битрейта : Постоянный
Битрейт : 192 Кбит/сек
Каналы : 2 канала
Расположение каналов : Front: L R
Частота : 48,0 КГц
Битовая глубина : 16 бит
Метод сжатия : С потерями
Размер потока : 139 Мбайт (1%)

Аудио #3
Идентификатор : 4354 (0x1102)
Идентификатор меню : 1 (0x1)
Формат : DTS
Формат/Информация : Digital Theater Systems
Профиль формата : MA / Core
Режим : 16
Параметр Endianness формата : Big
Режим смешивания : Stream extension
Идентификатор кодека : 134
Продолжительность : 1 ч. 41 м.
Вид битрейта : Переменный
Битрейт : Неизвестно / 1509 Кбит/сек
Каналы : 8 каналов / 6 каналов
Расположение каналов : Front: L C R, Side: L R, Back: L R, LFE / Front: L C R, Side: L R, LFE
Частота : 48,0 КГц
Битовая глубина : 24 бит
Метод сжатия : Без потерь / Lossy

Текст #1
Идентификатор : 4608 (0x1200)
Идентификатор меню : 1 (0x1)
Формат : PGS
Идентификатор кодека : 144

Текст #2
Идентификатор : 4609 (0x1201)
Идентификатор меню : 1 (0x1)
Формат : PGS
Идентификатор кодека : 144

Текст #3
Идентификатор : 4610 (0x1202)
Идентификатор меню : 1 (0x1)
Формат : PGS
Идентификатор кодека : 144

Текст #4
Идентификатор : 4611 (0x1203)
Идентификатор меню : 1 (0x1)
Формат : PGS
Идентификатор кодека : 144

Текст #5
Идентификатор : 4612 (0x1204)
Идентификатор меню : 1 (0x1)
Формат : PGS
Идентификатор кодека : 144
Задержка видео : 1 с. 1 мс.

Текст #6
Идентификатор : 4613 (0x1205)
Идентификатор меню : 1 (0x1)
Формат : PGS
Идентификатор кодека : 144








реклама партнёра


Вернуться к началу
 Профиль  
 
   Похожие торренты   Автор   Торрент   Размер 
В этой теме нет новых непрочитанных сообщений. В поисках Дори / Finding Dory ( Мультфильм, комедия, приключения, семейный, 2016) BDRemux 1080p от ExKinoRay | iTunes

marya111

0 | 0

19.36 ГБ

В этой теме нет новых непрочитанных сообщений. Тролли / Trolls (Мультфильм, мюзикл, фэнтези, комедия, приключения, семейный, 2016) BDRemux 1080p от ExKinoRay | iTunes

marya111

55 | 38

20.33 ГБ

В этой теме нет новых непрочитанных сообщений. Элвин и бурундуки: Грандиозное бурундуключение / Alvin and the Chipmunks: The Road Chip [мультфильм, фэнтези, комедия, приключения, семейный, музыка, 2015] BDRemux 1080p, Dub+Sub [iTunes]

salma3

11 | 6

22.55 ГБ

В этой теме нет новых непрочитанных сообщений. Семейка монстров / The Boxtroll [мультфильм, фэнтези, комедия, приключения, семейный, 2014] BDRip 1080p, Dub [3D-Video | iTunes]

Dracon

29 | 6

8.33 ГБ

В этой теме нет новых непрочитанных сообщений. Пингвины Мадагаскара / Penguins of Madagascar (Эрик Дарнелл, Саймон Дж. Смит) [мультфильм, комедия, приключения, семейный, 2014] BDRemux 1080p, Dub+Sub [Лицензия]

Dracon

24 | 5

22.1 ГБ

В этой теме нет новых непрочитанных сообщений. Пингвины Мадагаскара 2D, 3D / Penguins of Madagascar 2D, 3D (Эрик Дарнелл, Саймон Дж. Смит) [мультфильм, комедия, приключения, семейный, 2014] BDRemux 1080p, Dub+Sub [3D-Video | Лицензия]

Dracon

10 | 3

33.3 ГБ

В этой теме нет новых непрочитанных сообщений. Семейка монстров / The Boxtrolls (Грэхэм Эннэйбл, Энтони Стакки) [2014, Комедия, мультфильм, приключения, семейный, BDRip 1080p | iTunes]

Nickolas3435

385 | 22

7.63 ГБ


Начать новую тему Ответить на тему  [ 1 сообщение ] 




Для Мосгорсуда, Роскомнадзора и рекламодателей:: mosgorsud-torrent[собачка]yandex.ru