Торрент файл
скачать торрент магнет ссылка Добавлен: 01 окт 2014, 20:09
Размер: 6.53 ГБ
Сидеров: 302
Личеров: 58
Автор

СообщениеДобавлено: 30 июн 2014, 10:05 

Не в сети
Зам. Админа
Аватара пользователя
Дата регистрации:
02 дек 2010, 12:39
Спасибо: 12461 / 214
Сообщения: 27968
Год выхода: 2014
Жанр: Мультсериал, познавательный, детский

О фильме:
Влиться в новый коллектив и найти себе там друзей бывает совсем не просто. С этим столкнулся наш главный герой - юный самолётик Винки, который покинул родной дом, чтобы впервые начать самостоятельно работать. Он прибывает в большой аэропорт Манго, где сразу сталкивается с проблемами новичка. Здесь всё такое незнакомое и непривычное, что поначалу Винки не смог даже толком приземлится на взлётную полосу. Более того, другие самолёты оказались не очень приветливы, однако нашлись и те, кто был рад помочь новому сотруднику и вскоре у Винки появились первые друзья.

Страна: Россия
Студия: Теремок ТВ
Продолжительность: ~ 00:08:00 серия
Перевод: Не требуется

Кодек: XviD / AC3
Качество: WEBRip
Видео: MPEG4, XviD, 720x400 (16:9), 25.000 fps, 1 200 Kbps (0.167 bit/pixel)
Звук: AC-3, 48.0 KHz, 2 ch, 192 Kbps, CBR

General
Complete name : /Будни аэропорта.2014.Xvid.-merci/01. Винки прибывает!.Xvid.avi
Format : AVI
Format/Info : Audio Video Interleave
File size : 86.1 MiB
Duration : 8mn 35s
Overall bit rate : 1 402 Kbps
Writing application : VirtualDubMod 1.5.10.3 | http://www.virtualdub-fr.org || (build 2550/release)
Writing library : VirtualDubMod build 2550/release

Video
ID : 0
Format : MPEG-4 Visual
Format profile : Advanced Simple@L5
Format settings, BVOP : 2
Format settings, QPel : No
Format settings, GMC : No warppoints
Format settings, Matrix : Default (MPEG)
Codec ID : XVID
Codec ID/Hint : XviD
Duration : 8mn 35s
Bit rate : 1 200 Kbps
Width : 720 pixels
Height : 400 pixels
Display aspect ratio : 16:9
Frame rate : 25.000 fps
Color space : YUV
Chroma subsampling : 4:2:0
Bit depth : 8 bits
Scan type : Progressive
Compression mode : Lossy
Bits/(Pixel*Frame) : 0.167
Stream size : 73.7 MiB (86%)
Writing library : XviD 73

Audio
ID : 1
Format : AC-3
Format/Info : Audio Coding 3
Mode extension : CM (complete main)
Format settings, Endianness : Big
Codec ID : 2000
Duration : 8mn 35s
Bit rate mode : Constant
Bit rate : 192 Kbps
Channel(s) : 2 channels
Channel positions : Front: L R
Sampling rate : 48.0 KHz
Bit depth : 16 bits
Compression mode : Lossy
Stream size : 11.8 MiB (14%)
Alignment : Split accross interleaves
Interleave, duration : 40 ms (1.00 video frame)
Interleave, preload duration : 500 ms




реклама партнёра


Вернуться к началу
 Профиль  
 
   Похожие торренты   Автор   Торрент   Размер 
В этой теме нет новых непрочитанных сообщений. Маша и медведь: Героями не рождаются [43] [Мультсериал, сказка, детский, семейный. 2014] WEBRip

Dracon

2126 | 33

95.43 МБ

В этой теме нет новых непрочитанных сообщений. Маша и медведь: Дорогая передача [49] (Олег Кузовков, Владислав Байрамгулов) [Мультсериал, сказка, детский, семейный. 2014] WEBRip

Dracon

444 | 8

98.12 МБ

В этой теме нет новых непрочитанных сообщений. Маша и Медведь. Пещерный медведь [48] [Мультсериал, сказка, детский, семейный. 2014] WEBRip

Dracon

117 | 5

97.91 МБ

В этой теме нет новых непрочитанных сообщений. Киока / Kioka [01-11] ( Мультсериал, детский, обучающий, познавательный, 2015) WEB-DLRip 1080p от ExKinoRay | D

marya111

4 | 2

1.11 ГБ

В этой теме нет новых непрочитанных сообщений. Всё о Рози / Everything's Rosie / 1-2 сезон: 52 серии из 52 [мультсериал, детский, приключения, познавательный, 2010-2011]SATRip, Mvo

salma3

11 | 11

7.57 ГБ

В этой теме нет новых непрочитанных сообщений. Маша и Медведь. Неуловимые мстители [Серия 51] (Олег Кузовков, Олег Ужинов, Денис Червяцов) [Мультсериал, сказка, детский, семейный, 2015] WEBRip

Dracon

6 | 0

94.65 МБ

В этой теме нет новых непрочитанных сообщений. Маша и Медведь. Праздник урожая [Серия 50] (Олег Кузовков, Олег Ужинов, Денис Червяцов) [Мультсериал, сказка, детский, семейный, 2015] WEBRip

Dracon

32 | 2

104.12 МБ


Начать новую тему Ответить на тему  [ 1 сообщение ] 




Для Мосгорсуда, Роскомнадзора и рекламодателей:: mosgorsud-torrent[собачка]yandex.ru