Торрент файл
скачать торрент магнет ссылка Добавлен: 22 июн 2014, 14:53
Размер: 1.99 ГБ
Сидеров: 1253
Личеров: 14
Статус: (Dracon)
Автор

СообщениеДобавлено: 22 июн 2014, 14:53 

Не в сети
Зам. Админа
Аватара пользователя
Дата регистрации:
02 дек 2010, 12:39
Спасибо: 12461 / 214
Сообщения: 27968
Год выхода: 2014
Жанр: мультфильм, детский, семейный
Режиссер: Макото Накамура
В ролях: Лариса Брохман, Владимир Ферапонтов, Ольга Зверева, Дмитрий Филимонов, Александр Пожаров, Александр Груздев, Ольга Шорохова, Гарри Бардин, Владимир Орёл, Антон Морозов

О фильме:
Мультфильм из трех историй: «Чебурашка и цирк», «Чебурашка идет в зоопарк» и «Советы Шапокляк». Прологом служит история о появлении Чебурашки в ящике из-под апельсинов, его знакомстве с крокодилом Геной и обретении друзей. «Чебурашка и цирк» — история о дружбе и мечте. Гена и Чебурашка помогают девочке Маше научиться ходить по канату и осуществляют ее заветное желание — выступать в цирке. В серии «Чебурашка идет в зоопарк» Гена заболел, и Чебурашка отправился вместо него «работать крокодилом» в зоопарке. Возникает веселая путаница. Заключительная история — «Советы Шапокляк». Герои приходят на помощь фокуснику, потерявшему внучку. А Шапокляк открывает бюро платных бесполезных советов.



Страна: Япония, Южная Корея, Россия, Беларусь
Студия: Ffangoentertoyment
Продолжительность: 01:20:19

Кодек: h.264 (MKV)
Качество: WEBRip 720p
Видео: AVC, 1280 x 720, ~3219 kbps
Звук: AC-3, 2 ch, 256 kbps
Субтитры: нет

Семпл
Общее
Уникальный идентификатор : 213502537414890381705674204571354446914 (0xA09F17CEE9DABC56B2D8C8A5C60ABC42)
Полное имя : G: Чебурашка Cheburashka (2013)WEBRip 720pCheburashka(1) (1).mkv
Формат : Matroska
Версия формата : Version 4 / Version 2
Размер файла : 1,99 Гбайт
Продолжительность : 1 ч. 20 м.
Общий поток : 3546 Кбит/сек
Название фильма : profile.php?mode=viewprofile&u=22488948
Дата кодирования : UTC 2014-06-22 06:54:40
Программа кодирования : mkvmerge v6.9.1 ('Blue Panther') 64bit built on Apr 18 2014 18:23:38
Библиотека кодирования : libebml v1.3.0 + libmatroska v1.4.1

Видео
Идентификатор : 1
Формат : AVC
Формат/Информация : Advanced Video Codec
Профиль формата : Main@L5.1
Параметр CABAC формата : Да
Параметр ReFrames формата : 1 кадр
Идентификатор кодека : V_MPEG4/ISO/AVC
Продолжительность : 1 ч. 20 м.
Битрейт : 3219 Кбит/сек
Ширина : 1280 пикселей
Высота : 720 пикселей
Соотношение сторон : 16:9
Режим частоты кадров : Постоянный
Частота кадров : 25,000 кадров/сек
Цветовое пространство : YUV
Субдискретизация насыщенности : 4:2:0
Битовая глубина : 8 бит
Тип развёртки : Прогрессивная
Бит/(Пиксели*Кадры) : 0.140
Размер потока : 1,81 Гбайт (91%)
Default : Да
Forced : Нет

Аудио
Идентификатор : 2
Формат : AC-3
Формат/Информация : Audio Coding 3
Расширение режима : CM (complete main)
Параметр Endianness формата : Big
Идентификатор кодека : A_AC3
Продолжительность : 1 ч. 20 м.
Вид битрейта : Постоянный
Битрейт : 256 Кбит/сек
Каналы : 2 канала
Расположение каналов : Front: L R
Частота : 48,0 КГц
Битовая глубина : 16 бит
Метод сжатия : С потерями
Размер потока : 147 Мбайт (7%)
Default : Да
Forced : Нет




реклама партнёра


Вернуться к началу
 Профиль  
 
   Похожие торренты   Автор   Торрент   Размер 
В этой теме нет новых непрочитанных сообщений. Чебурашка / Cheburashka [Мультфильм, детский, семейный, 2014] WEBRip

Dracon

250 | 7

697.83 МБ

В этой теме нет новых непрочитанных сообщений. Чебурашка / Cheburashka [Мультфильм, детский, семейный, 2014] DVD5 [Лицензия]

Dracon

361 | 21

3.88 ГБ

В этой теме нет новых непрочитанных сообщений. Снежная королева 2: Перезаморозка (Алексей Цицилин) [мультфильм, фэнтези, приключения, семейный, 2014] WEBRip 720p

Dracon

595 | 8

2.25 ГБ

В этой теме нет новых непрочитанных сообщений. Дневник мамы первоклассника [детский, мелодрама, семейный, 2014] WEBRip

Dracon

583 | 17

1.37 ГБ

В этой теме нет новых непрочитанных сообщений. Маша и медведь: Героями не рождаются [43] [Мультсериал, сказка, детский, семейный. 2014] WEBRip

Dracon

2126 | 33

95.43 МБ

В этой теме нет новых непрочитанных сообщений. Маша и медведь: Дорогая передача [49] (Олег Кузовков, Владислав Байрамгулов) [Мультсериал, сказка, детский, семейный. 2014] WEBRip

Dracon

444 | 8

98.12 МБ

В этой теме нет новых непрочитанных сообщений. Маша и Медведь. Пещерный медведь [48] [Мультсериал, сказка, детский, семейный. 2014] WEBRip

Dracon

117 | 5

97.91 МБ


Начать новую тему Ответить на тему  [ 1 сообщение ] 




Для Мосгорсуда, Роскомнадзора и рекламодателей:: mosgorsud-torrent[собачка]yandex.ru