Торрент файл
скачать торрент магнет ссылка Добавлен: 18 июн 2014, 02:54
Размер: 2.09 ГБ
Сидеров: 163
Личеров: 9
Автор

СообщениеДобавлено: 18 июн 2014, 02:54 

Не в сети
Супермодератор
Аватара пользователя
Дата регистрации:
06 июн 2014, 07:51
Спасибо: 576 / 0
Сообщения: 2002
Информация о фильме
Название: Секретные материалы Мстителей: Черная Вдова и Каратель
Оригинальное название: Avengers Confidential: Black Widow & Punisher
Год выхода: 2014
Жанр: мультфильм, фантастика
Режиссер: Кенити Симидзу
В ролях: Дженнифер Карпентер, Брайан Блум, Джон Бентли, Грант Джордж, Кайл Хеберт, Кари Уолгрен, Эрик Бауза, Джейби Бланк, Фред Татаскьор, Мэттью Мерсер

О фильме:
После вмешательства в сверхсекретные миссии ЩИТа Каратель попадает под контроль Черной вдовы. По приказу Ника Фьюри они отправляются на миссию по борьбе с глобальной террористической организацией Левиафан, которая планирует продать украденные у ЩИТа технологии любому, кто больше заплатит. Теперь убийца и шпионка должны работать вместе, чтобы предотвратить попадание информации не в те руки. На чашу весов положена судьба мира и Мстителей.


Страна: США
Студия: Madhouse, Marvel Comics
Продолжительность: 01:22:43
Перевод: Любительский (Двуголосый закадровый) Persona99 & Molodoy

Файл
Кодек: h.264 (MKV)
Качество: BDRip 720p
Видео: AVC, 1280 x 720, ~3030 kbps
Звук: Русский / Английский: AC-3, 2 ch, 256 kbps
Субтитры: Русский

Семпл

Общее
Уникальный идентификатор : 168348648403719580577546155723716462494 (0x7EA6C532C2870C1E037BA147C20E879E)
Полное имя : G: Секретные материалы Мстителей Черная Вдова и Каратель Avengers Confidential Black Widow & Punisher (2014)Avengers Confidential Black Widow & Punisher (2014) BDRip 720р.mkv
Формат : Matroska
Версия формата : Version 2
Размер файла : 2,09 Гбайт
Продолжительность : 1 ч. 22 м.
Режим общего битрейта : Переменный
Общий поток : 3614 Кбит/сек
Программа кодирования : Lavf51.12.1
Библиотека кодирования : Lavf51.12.1

Видео
Идентификатор : 1
Формат : AVC
Формат/Информация : Advanced Video Codec
Профиль формата : Baseline@L3.1
Параметр CABAC формата : Нет
Параметр ReFrames формата : 1 кадр
Параметр GOP формата : M=1, N=12
Идентификатор кодека : V_MPEG4/ISO/AVC
Продолжительность : 1 ч. 22 м.
Вид битрейта : Переменный
Битрейт : 3030 Кбит/сек
Максимальный битрейт : 4650 Кбит/сек
Ширина : 1280 пикселей
Высота : 720 пикселей
Соотношение сторон : 16:9
Режим частоты кадров : Постоянный
Частота кадров : 23,976 кадра/сек
Частота кадров в оригинале : 24,000 кадра/сек
Цветовое пространство : YUV
Субдискретизация насыщенности : 4:2:0
Битовая глубина : 8 бит
Тип развёртки : Прогрессивная
Бит/(Пиксели*Кадры) : 0.137
Размер потока : 1,75 Гбайт (84%)
Default : Да
Forced : Нет

Аудио #1
Идентификатор : 2
Формат : AC-3
Формат/Информация : Audio Coding 3
Расширение режима : CM (complete main)
Параметр Endianness формата : Big
Идентификатор кодека : A_AC3
Продолжительность : 1 ч. 22 м.
Вид битрейта : Постоянный
Битрейт : 256 Кбит/сек
Каналы : 2 канала
Расположение каналов : Front: L R
Частота : 48,0 КГц
Битовая глубина : 16 бит
Метод сжатия : С потерями
Размер потока : 151 Мбайт (7%)
Язык : Russian
Default : Да
Forced : Нет

Аудио #2
Идентификатор : 4
Формат : AC-3
Формат/Информация : Audio Coding 3
Расширение режима : CM (complete main)
Параметр Endianness формата : Big
Идентификатор кодека : A_AC3
Продолжительность : 1 ч. 22 м.
Вид битрейта : Постоянный
Битрейт : 256 Кбит/сек
Каналы : 2 канала
Расположение каналов : Front: L R
Частота : 48,0 КГц
Битовая глубина : 16 бит
Метод сжатия : С потерями
Размер потока : 151 Мбайт (7%)
Язык : English
Default : Да
Forced : Нет

Текст
Идентификатор : 3
Формат : ASS
Идентификатор кодека : S_TEXT/ASS
Идентификатор кодека/Информация : Advanced Sub Station Alpha
Метод сжатия : Без потерь
Язык : Russian
Default : Да
Forced : Нет




реклама партнёра


Вернуться к началу
 Профиль Отправить личное сообщение  
 
   Похожие торренты   Автор   Торрент   Размер 
В этой теме нет новых непрочитанных сообщений. Секретные Материалы Мстителей: Черная Вдова и Каратель / Avengers Confidential: Black Widow & Punisher (Кенити Симидзу) [2014, Мультфильм, HDRip]

Nickolas3435

142 | 5

1.37 ГБ

В этой теме нет новых непрочитанных сообщений. Черная вдова / Black Widow [Детектив, Триллер, Криминал, 1987] BDRip, Mvo

salma3

74 | 1

1.46 ГБ

В этой теме нет новых непрочитанных сообщений. Кровавая вдова / Blood Widow (Джерами Бэкхелт) [ужасы, 2014] BDRip 720p, avo

Dracon

144 | 12

3.39 ГБ

В этой теме нет новых непрочитанных сообщений. Кровавая вдова / Blood Widow [Ужасы, 2014] HDRip, avo

Dracon

133 | 17

735.72 МБ

В этой теме нет новых непрочитанных сообщений. Кровавая вдова / Blood Widow (Джерами Бэкхелт) [ужасы, 2014] HDRip, avo

salma3

339 | 111

1.38 ГБ

В этой теме нет новых непрочитанных сообщений. Секретные материалы / The X-Files [10 сезон: 1-5 серия из 6] [Фантастика, триллер, драма, детектив, 2016] WEB-DL 720p, Dub

Dracon

0 | 0

6.91 ГБ

В этой теме нет новых непрочитанных сообщений. Паразит / Kiseijuu: Sei no Kakuritsu [01-24 из 24] (Симидзу Кэнъити) [2014, приключения, ужасы, фантастика, HDTVRip 720p | AniFilm]

Nickolas3435

261 | 112

7.95 ГБ


Начать новую тему Ответить на тему  [ 1 сообщение ] 




Для Мосгорсуда, Роскомнадзора и рекламодателей:: mosgorsud-torrent[собачка]yandex.ru