Торрент файл
скачать торрент магнет ссылка Добавлен: 17 июн 2014, 17:05
Размер: 28.79 ГБ
Сидеров: 1
Личеров: 2
Автор

СообщениеДобавлено: 17 июн 2014, 17:05 

Не в сети
Релизёр
Дата регистрации:
14 июл 2013, 00:47
Возраст: 19
Спасибо: 10 / 1
Сообщения: 21
Аватар: Легенда об Аанге Книга 3.Огонь / Avatar: The Last Airbender The book 3.Fire
Страна: США
Жанр: Мультсериал, приключения, семейный, фэнтези.
Продолжительность: 25 минут серия.
Год выпуска: 2007-2008
Перевод: Профессиональный (дублированный)
Русские субтитры: нет
Режиссёр: Michael Dante DiMartino / Майкл Данте Димартино / Bryan Konietzko / Брайан кониецко.
Описание: Аватар: Последний Маг Воздуха (в россии известен как Аватар — Легенда Об Аанге) — номинированный на Эмми мультсериал, выходящий в эфир на канале «Nickelodeon television network». Действия происходят в псевдо-азиатском мире боевых искусств и покорения стихий. Сериал повествует о приключениях последнего из Аватаров (Аватар — это покоритель всех четырех стихий : Воздуха, Воды, Огня и Земли), Аанга, и его друзьях. Все вместе они спасают мир от Народа Огня, развязавшей войну около ста лет назад. Каждая серия служит как глава книги, каждый сезон как сама книга. В каждой книге Аватар учится покорять одну из стихий, при этом он с самого начала владеет всего лишь магией воздуха.

Мир разделен на четыре Народа: Воды, Земли, Воздуха и Огня. У каждого Народа есть Предводитель, который обладает способностями управлять своей стихией. Они называют себя Магами Воды, Земли, Огня и Воздуха. Сильнейший Властелин мира и единственный, кто может управлять всеми четырьми стихиями, — Аватар — воскресает для каждого Народа раз в сто лет.

Когда жестокий Народ Огня угрожает поработить Народы Воды, Земли и Воздуха, непокорному и озорному мальчишке предстоит встретить свою судьбу, судьбу Аватара, избранного, которому суждено восстановить мировой порядок.

«Аватар: Легенда об Аанге» — это история Аанга, двенадцатилетнего мальчика, который просто хотел жить обычной жизнью, но в его судьбу вмешалось появление долгожданного Аватара. Аанг призван возглавить борьбу с жестоким Народом Огня, чтобы восстановить равновесие в разобщенном войной мире. Аанг отправляется в опасное путешествие, чтобы спасти мир. Ему помогают юная, но отважная Маг Воды по имени Катара и ее простодушный брат-воин по имени Сокка. В пути Аанг иногда забывает о своей нелегкой миссии, и тогда он просто радуется тому, что он обычный мальчишка.

Сериал дебютирован 21 февраля 2005 года. Создатели — Майкл Данте ДиМартино (англ. Michael Dante DiMartino) и Брайан Кониецко (англ. Bryan Konietzko). На данный момент существуют три сезона: Книга Воды, Книга Земли и Книга Огня. В первых двух сезонах двадцать серий-глав. Третий сезон (Книга Огня) стартовал в эфире Nickelodeon television network 21 сентября 2007 года. Недавно стало известно, что в третьем сезоне будет не 20, а 21 серия, так как две части Дня Чёрного Солнца считаются одной главой. Также стало известно, что финал будет состоять из 4 серий.
Благодарности
xfiles,multmir-за советы в изготовлении
Vavillla-за моральную поддержку и веру в светлое будущее

Используемый, при изготовлении релиза, софт
PgcDemux-демукс исходного DVD
BeLight-разпаковка дорожки в WAV формат
Vegas Pro 10.0-синхронизация, сборка в АС3 дорожки
MuxMan-сборка видео
DVDReMakePro-реавторинг диска

Список серий
Книга 3: Огонь.

Глава 1. Пробуждение
Глава 2. Повязка
Глава 3. Разрисованная Леди
Глава 4. Учитель Сокки
Глава 5. Пляж
Глава 6. Аватар и Хозяин Огня
Глава 7. Беглянка
Глава 8. Кукловод
Глава 9. Кошмары и Видения
Глава 10. День Черного Солнца, Часть 1 - Вторжение
Глава 11. День Черного Солнца, Часть 2 - Затмение
Глава 12. Западный Храм Воздуха
Глава 13. Учителя Магии Огня
Глава 14. Кипящий камень, Часть 1
Глава 15. Кипящий камень, Часть 2
Глава 16. Южные захватчики
Глава 17. Игроки угольного острова
Глава 18. Комета Созина, Часть 1: Феникс-Лорд
Глава 19. Комета Созина, Часть 2: Древние Повелители
Глава 20. Комета Созина, Часть 3: Пламя Ада
Глава 21. Комета Созина, Часть 4: Аватар Аанг

Доп. информация: Это оригинальное американское R1 издание с добавленной русской аудиодорожкой. Дорожки взяты с купленных мною дисков в интернет магазине Suzaku. Разбивку на 2ХDVD5 и раздачу запрещаю.
Дорожка выбираеться с пульта, так как в 3 книге присутствует, только английская дорожка.

сэмпл
Качество: DVD9 (Custom)
Формат: DVD-Video
Видео: NTSC 4:3 (720x480), 29.970 fps. 8 049 Kbps. VBR
Аудио: English, AC3, 2/0 (L,R) ch, 192 kbps, Delay 0 mSec
Аудио 2: English, AC3, 2/0 (L,R) ch, 192 kbps, Delay 0 mSec
Аудио 3: Russian, AC3, 2/0 (L,R) ch, 192 kbps, Delay 0 mSec
Субтитры: отсутствуют
DVDInfo
Код:
disc-1
[pre]Title: Book-3-disc-1
Size: 7.58 Gb ( 7 943 266,00 KBytes ) - DVD-9
Enabled regions: 1, 2, 3, 4, 5, 6, 7, 8

VTS_01 :
Play Length: 00:00:00
Video: NTSC 16:9 (720x480) VBR, Auto Pan&Scan
Audio:
Not specified,
Not specified,
Not specified,
Not specified,
Not specified,
Not specified,
Not specified,
Not specified,

Subtitles:
Not specified
Not specified
Not specified
Not specified
Not specified
Not specified
Not specified
Not specified
Not specified
Not specified
Not specified
Not specified

VTS_02 :
Play Length: 00:00:00
Video: NTSC 4:3 (720x480) VBR

VTS_03 :
Play Length: 00:00:00
Video: NTSC 4:3 (720x480) VBR
Audio:
English,
Francais,
Espanol,

VTS_04 :
Play Length: 00:00:00+00:02:55
Video: NTSC 4:3 (720x480) VBR
Audio:
English, AC3, 2/0 (L,R) ch, 192 kbps, Delay 0 mSec

VTS_05 :
Play Length: 00:24:31+00:24:31+00:24:31+00:24:31+00:24:32+02:02:36
Video: NTSC 4:3 (720x480) VBR
Audio:
English, AC3, 2/0 (L,R) ch, 192 kbps, Delay 0 mSec
English, AC3, 2/0 (L,R) ch, 192 kbps, Delay 0 mSec
Russian, AC3, 2/0 (L,R) ch, 192 kbps, Delay 0 mSec

* Menus Information *

VIDEO_TS Menu
Video:
NTSC 4:3 (720x480) VBR
English Language Unit :
Title Menu

VTS_01 Menu
Video:
NTSC 4:3 (720x480) VBR
English Language Unit :
Root Menu

VTS_02 Menu
Video:
NTSC 4:3 (720x480) VBR
English Language Unit :
Root Menu
Angle menu

VTS_03 Menu
Video:
NTSC 4:3 (720x480) VBR
Audio:
Not specified (Dolby AC3, 2 ch)
English Language Unit :
Root Menu
Angle menu
Chapter (PTT) Menu

VTS_04 Menu
Video:
NTSC 4:3 (720x480) VBR
Auto Pan&Scan, Auto Letterboxed
English Language Unit :
Root Menu

VTS_05 Menu
Video:
NTSC 4:3 (720x480) VBR
Auto Pan&Scan, Auto Letterboxed
English Language Unit :
Root Menu
Audio Menu
Chapter (PTT) Menu
disc-2
Код:
Title: Book-3-disc-2
Size: 7.57 Gb ( 7 941 200,00 KBytes ) - DVD-9
Enabled regions: 1, 2, 3, 4, 5, 6, 7, 8

VTS_01 :
  Play Length: 00:00:00
  Video: NTSC 16:9 (720x480) VBR, Auto Pan&Scan
  Audio:
      Not specified,
      Not specified,
      Not specified,
      Not specified,
      Not specified,
      Not specified,
      Not specified,
      Not specified,

  Subtitles:
      Not specified
      Not specified
      Not specified
      Not specified
      Not specified
      Not specified
      Not specified
      Not specified
      Not specified
      Not specified
      Not specified
      Not specified

VTS_02 :
  Play Length: 00:00:00
  Video: NTSC 4:3 (720x480) VBR

VTS_03 :
  Play Length: 00:00:00
  Video: NTSC 4:3 (720x480) VBR
  Audio:
      Not specified,
      Not specified,
      Not specified,
      Not specified,
      Not specified,

  Subtitles:
      Not specified
      Not specified
      Not specified

VTS_04 :
  Play Length: 00:00:00+00:02:10
  Video: NTSC 4:3 (720x480) VBR
  Audio:
      English, AC3, 2/0 (L,R) ch, 192 kbps, Delay 0 mSec

VTS_05 :
  Play Length: 00:24:35+00:24:33+00:24:30+00:24:31+00:24:35+02:02:45
  Video: NTSC 4:3 (720x480) VBR
  Audio:
      English, AC3, 2/0 (L,R) ch, 192 kbps, Delay 0 mSec
      English, AC3, 2/0 (L,R) ch, 192 kbps, Delay 0 mSec
      Russian, AC3, 2/0 (L,R) ch, 192 kbps, Delay 0 mSec

* Menus Information *

VIDEO_TS Menu
Video:
      NTSC 4:3 (720x480) VBR
English Language Unit :
      Title Menu

VTS_01 Menu
Video:
      NTSC 4:3 (720x480) VBR
English Language Unit :
      Root Menu

VTS_02 Menu
Video:
      NTSC 4:3 (720x480) VBR
English Language Unit :
      Root Menu
      Angle menu

VTS_03 Menu
Video:
      NTSC 4:3 (720x480) VBR
Audio:
      Not specified (Dolby AC3, 2 ch)
English Language Unit :
      Root Menu
      Angle menu
      Chapter (PTT) Menu

VTS_04 Menu
Video:
      NTSC 4:3 (720x480) VBR
      Auto Pan&Scan, Auto Letterboxed
English Language Unit :
      Root Menu

VTS_05 Menu
Video:
      NTSC 4:3 (720x480) VBR
      Auto Pan&Scan, Auto Letterboxed
English Language Unit :
      Root Menu
      Audio Menu
      Chapter (PTT) Menu
disc-3
Код:
Title: Book-3-disc-3
Size: 6.87 Gb ( 7 205 944,00 KBytes ) - DVD-9
Enabled regions: 1, 2, 3, 4, 5, 6, 7, 8

VTS_01 :
  Play Length: 00:24:31+00:24:28+00:24:30+00:24:30+00:24:12+{02:02:10}
  Video: NTSC 4:3 (720x480) VBR
  Audio:
      English, AC3, 2/0 (L,R) ch, 192 kbps, Delay 0 mSec
      English, AC3, 2/0 (L,R) ch, 192 kbps, Delay 0 mSec
      Russian, AC3, 2/0 (L,R) ch, 192 kbps, Delay 0 mSec

VTS_02 :
  Play Length: 00:00:00+{00:00:00}+{00:00:00}
  Video: NTSC 4:3 (720x480) VBR

VTS_03 :
  Play Length: 00:01:10
  Video: NTSC 4:3 (720x480) VBR
  Audio:
      English, AC3, 2/0 (L,R) ch, 192 kbps, Delay 0 mSec

VTS_04 :
  Play Length: 00:00:04
  Video: NTSC 4:3 (720x480) VBR

VTS_05 :
  Play Length: 00:00:00
  Video: NTSC 4:3 (720x480) VBR

* Menus Information *

VIDEO_TS Menu
Video:
      NTSC 4:3 (720x480) VBR
English Language Unit :
      Title Menu

VTS_01 Menu
Video:
      NTSC 4:3 (720x480) VBR
Audio:
      Not specified (Dolby AC3, 2 ch)
English Language Unit :
      Root Menu
      Subpicture Menu
      Audio Menu
      Angle menu
      Chapter (PTT) Menu

VTS_02 Menu
Video:
      NTSC 4:3 (720x480) VBR
English Language Unit :
      Root Menu

VTS_03 Menu
Video:
      NTSC 4:3 (720x480) VBR
English Language Unit :
      Root Menu

VTS_04 Menu
Video:
      NTSC 4:3 (720x480) VBR
English Language Unit :
      Root Menu

VTS_05 Menu
Video:
      NTSC 4:3 (720x480) VBR
English Language Unit :
      Root Menu
disc-4
Код:
Title: Book-3-disc-4
Size: 6.76 Gb ( 7 087 408,00 KBytes ) - DVD-9
Enabled regions: 1, 2, 3, 4, 5, 6, 7, 8

VTS_01 :
  Play Length: 00:24:20+00:24:34+00:24:28+00:24:36+00:24:29+00:24:34+{02:27:02}
  Video: NTSC 4:3 (720x480) VBR
  Audio:
      English, AC3, 2/0 (L,R) ch, 192 kbps, Delay 0 mSec
      English, AC3, 2/0 (L,R) ch, 192 kbps, Delay 0 mSec
      Russian, AC3, 2/0 (L,R) ch, 192 kbps, Delay 0 mSec

VTS_02 :
  Play Length: 00:00:00+{00:00:00}+{00:00:00}
  Video: NTSC 4:3 (720x480) VBR

VTS_03 :
  Play Length: 00:01:53
  Video: NTSC 4:3 (720x480) VBR
  Audio:
      English, AC3, 2/0 (L,R) ch, 192 kbps, Delay 0 mSec

VTS_04 :
  Play Length: 00:00:04
  Video: NTSC 4:3 (720x480) VBR

VTS_05 :
  Play Length: 00:00:00
  Video: NTSC 4:3 (720x480) VBR

* Menus Information *

VIDEO_TS Menu
Video:
      NTSC 4:3 (720x480) VBR
English Language Unit :
      Title Menu

VTS_01 Menu
Video:
      NTSC 4:3 (720x480) VBR
Audio:
      Not specified (Dolby AC3, 2 ch)
English Language Unit :
      Root Menu
      Subpicture Menu
      Audio Menu
      Angle menu
      Chapter (PTT) Menu

VTS_02 Menu
Video:
      NTSC 4:3 (720x480) VBR
English Language Unit :
      Root Menu

VTS_03 Menu
Video:
      NTSC 4:3 (720x480) VBR
English Language Unit :
      Root Menu

VTS_04 Menu
Video:
      NTSC 4:3 (720x480) VBR
English Language Unit :
      Root Menu

VTS_05 Menu
Video:
      NTSC 4:3 (720x480) VBR
English Language Unit :
      Root Menu

Подробные технические данные
Код:
General
Complete name                    : H:\МУЛЬТСЕРИАЛЫ\АВАТАР\Avatar The Last Air Bender_(Book 3-Fire)\Book 3-Fire\Book-3-disc-1\VIDEO_TS\VIDEO_TS.VOB
Format                           : MPEG-PS
File size                        : 470 KiB
Duration                         : 533ms
Overall bit rate                 : 7 224 Kbps

Video
ID                               : 224 (0xE0)
Format                           : MPEG Video
Format version                   : Version 2
Format profile                   : Main@Main
Format settings, Matrix          : Default
Duration                         : 533ms
Bit rate mode                    : Variable
Bit rate                         : 4 587 Kbps
Width                            : 720 pixels
Height                           : 480 pixels
Display aspect ratio             : 4:3
Frame rate                       : 29.970 fps
Standard                         : NTSC
Colorimetry                      : 4:2:0
Scan type                        : Progressive
Scan order                       : Top Field First
Bits/(Pixel*Frame)               : 0.443
Stream size                      : 298 KiB (64%)

General
Complete name                    : H:\МУЛЬТСЕРИАЛЫ\АВАТАР\Avatar The Last Air Bender_(Book 3-Fire)\Book 3-Fire\Book-3-disc-1\VIDEO_TS\VTS_01_0.VOB
Format                           : MPEG-PS
File size                        : 224 KiB
Duration                         : 33ms
Overall bit rate                 : 55.6 Mbps

Video
ID                               : 224 (0xE0)
Format                           : MPEG Video
Format version                   : Version 2
Format profile                   : Main@Main
Format settings, Matrix          : Default
Duration                         : 33ms
Bit rate mode                    : Variable
Bit rate                         : 4 587 Kbps
Width                            : 720 pixels
Height                           : 480 pixels
Display aspect ratio             : 4:3
Frame rate                       : 29.970 fps
Standard                         : NTSC
Colorimetry                      : 4:2:0
Scan type                        : Progressive
Scan order                       : Top Field First
Bits/(Pixel*Frame)               : 0.443
Stream size                      : 18.5 KiB (8%)

General
Complete name                    : H:\МУЛЬТСЕРИАЛЫ\АВАТАР\Avatar The Last Air Bender_(Book 3-Fire)\Book 3-Fire\Book-3-disc-1\VIDEO_TS\VTS_01_1.VOB
Format                           : MPEG-PS
File size                        : 10.0 KiB
Duration                         : 33ms
Overall bit rate                 : 2 482 Kbps

Video
ID                               : 224 (0xE0)
Format                           : MPEG Video
Format version                   : Version 2
Format profile                   : Main@Main
Format settings, Matrix          : Default
Duration                         : 33ms
Bit rate mode                    : Variable
Bit rate                         : 4 587 Kbps
Width                            : 720 pixels
Height                           : 480 pixels
Display aspect ratio             : 16:9
Frame rate                       : 29.970 fps
Standard                         : NTSC
Colorimetry                      : 4:2:0
Scan type                        : Progressive
Scan order                       : Top Field First
Bits/(Pixel*Frame)               : 0.443
Stream size                      : 18.5 KiB

General
Complete name                    : H:\МУЛЬТСЕРИАЛЫ\АВАТАР\Avatar The Last Air Bender_(Book 3-Fire)\Book 3-Fire\Book-3-disc-1\VIDEO_TS\VTS_02_0.VOB
Format                           : MPEG-PS
File size                        : 4.44 MiB
Duration                         : 4s 137ms
Overall bit rate                 : 9 002 Kbps

Video
ID                               : 224 (0xE0)
Format                           : MPEG Video
Format version                   : Version 2
Format profile                   : Main@Main
Format settings, Matrix          : Default
Duration                         : 4s 137ms
Bit rate mode                    : Variable
Bit rate                         : 8 645 Kbps
Nominal bit rate                 : 9 800 Kbps
Width                            : 720 pixels
Height                           : 480 pixels
Display aspect ratio             : 4:3
Frame rate                       : 29.970 fps
Standard                         : Component
Colorimetry                      : 4:2:0
Scan type                        : Interlaced
Scan order                       : Top Field First
Bits/(Pixel*Frame)               : 0.835
Stream size                      : 4.26 MiB (96%)

General
Complete name                    : H:\МУЛЬТСЕРИАЛЫ\АВАТАР\Avatar The Last Air Bender_(Book 3-Fire)\Book 3-Fire\Book-3-disc-1\VIDEO_TS\VTS_02_1.VOB
Format                           : MPEG-PS
File size                        : 10.0 KiB
Duration                         : 33ms
Overall bit rate                 : 2 482 Kbps

Video
ID                               : 224 (0xE0)
Format                           : MPEG Video
Format version                   : Version 2
Format profile                   : Main@Main
Format settings, Matrix          : Default
Duration                         : 33ms
Bit rate mode                    : Variable
Bit rate                         : 4 587 Kbps
Width                            : 720 pixels
Height                           : 480 pixels
Display aspect ratio             : 4:3
Frame rate                       : 29.970 fps
Standard                         : NTSC
Colorimetry                      : 4:2:0
Scan type                        : Progressive
Scan order                       : Top Field First
Bits/(Pixel*Frame)               : 0.443
Stream size                      : 18.5 KiB

General
Complete name                    : H:\МУЛЬТСЕРИАЛЫ\АВАТАР\Avatar The Last Air Bender_(Book 3-Fire)\Book 3-Fire\Book-3-disc-1\VIDEO_TS\VTS_03_0.VOB
Format                           : MPEG-PS
File size                        : 53.8 MiB
Duration                         : 33s 696ms
Overall bit rate                 : 13.4 Mbps

Video
ID                               : 224 (0xE0)
Format                           : MPEG Video
Format version                   : Version 2
Format profile                   : Main@Main
Format settings, Matrix          : Default
Duration                         : 348ms
Bit rate mode                    : Variable
Bit rate                         : 12.7 Mbps
Nominal bit rate                 : 9 800 Kbps
Width                            : 720 pixels
Height                           : 480 pixels
Display aspect ratio             : 4:3
Frame rate                       : 29.970 fps
Standard                         : Component
Colorimetry                      : 4:2:0
Scan type                        : Interlaced
Scan order                       : Top Field First
Bits/(Pixel*Frame)               : 1.224
Stream size                      : 539 KiB (1%)

Audio
ID                               : 128 (0x80)
Format                           : AC-3
Format/Info                      : Audio Coding 3
Duration                         : 33s 696ms
Bit rate mode                    : Constant
Bit rate                         : 192 Kbps
Channel(s)                       : 2 channels
Channel positions                : L R
Sampling rate                    : 48.0 KHz
Stream size                      : 790 KiB (1%)

Text
ID                               : 32 (0x20)
Format                           : RLE
Format/Info                      : Run-length encoding

General
Complete name                    : H:\МУЛЬТСЕРИАЛЫ\АВАТАР\Avatar The Last Air Bender_(Book 3-Fire)\Book 3-Fire\Book-3-disc-1\VIDEO_TS\VTS_04_1.VOB
Format                           : MPEG-PS
File size                        : 121 MiB
Duration                         : 2mn 55s
Overall bit rate                 : 5 803 Kbps

Video
ID                               : 224 (0xE0)
Format                           : MPEG Video
Format version                   : Version 2
Format profile                   : Main@Main
Format settings, Matrix          : Default
Duration                         : 348ms
Bit rate mode                    : Variable
Bit rate                         : 5 381 Kbps
Nominal bit rate                 : 9 800 Kbps
Width                            : 720 pixels
Height                           : 480 pixels
Display aspect ratio             : 4:3
Frame rate                       : 29.970 fps
Standard                         : Component
Colorimetry                      : 4:2:0
Scan type                        : Interlaced
Scan order                       : Top Field First
Bits/(Pixel*Frame)               : 0.519
Stream size                      : 229 KiB (0%)

Audio
ID                               : 128 (0x80)
Format                           : AC-3
Format/Info                      : Audio Coding 3
Duration                         : 2mn 55s
Bit rate mode                    : Constant
Bit rate                         : 192 Kbps
Channel(s)                       : 2 channels
Channel positions                : L R
Sampling rate                    : 48.0 KHz
Stream size                      : 4.01 MiB (3%)

General
Complete name                    : H:\МУЛЬТСЕРИАЛЫ\АВАТАР\Avatar The Last Air Bender_(Book 3-Fire)\Book 3-Fire\Book-3-disc-1\VIDEO_TS\VTS_05_1.VOB
Format                           : MPEG-PS
File size                        : 1 024 MiB
Duration                         : 15mn 54s
Overall bit rate                 : 9 003 Kbps

Video
ID                               : 224 (0xE0)
Format                           : MPEG Video
Format version                   : Version 2
Format profile                   : Main@Main
Format settings, Matrix          : Default
Duration                         : 15mn 54s
Bit rate mode                    : Variable
Bit rate                         : 8 070 Kbps
Nominal bit rate                 : 9 800 Kbps
Width                            : 720 pixels
Height                           : 480 pixels
Display aspect ratio             : 4:3
Frame rate                       : 29.970 fps
Standard                         : Component
Colorimetry                      : 4:2:0
Scan type                        : Interlaced
Scan order                       : Top Field First
Bits/(Pixel*Frame)               : 0.779
Stream size                      : 918 MiB (90%)

Audio #1
ID                               : 128 (0x80)
Format                           : AC-3
Format/Info                      : Audio Coding 3
Duration                         : 15mn 53s
Bit rate mode                    : Constant
Bit rate                         : 192 Kbps
Channel(s)                       : 2 channels
Channel positions                : L R
Sampling rate                    : 48.0 KHz
Stream size                      : 21.8 MiB (2%)

Audio #2
ID                               : 129 (0x81)
Format                           : AC-3
Format/Info                      : Audio Coding 3
Duration                         : 15mn 53s
Bit rate mode                    : Constant
Bit rate                         : 192 Kbps
Channel(s)                       : 2 channels
Channel positions                : L R
Sampling rate                    : 48.0 KHz
Stream size                      : 21.8 MiB (2%)

Audio #3
ID                               : 130 (0x82)
Format                           : AC-3
Format/Info                      : Audio Coding 3
Duration                         : 15mn 53s
Bit rate mode                    : Constant
Bit rate                         : 192 Kbps
Channel(s)                       : 2 channels
Channel positions                : L R
Sampling rate                    : 48.0 KHz
Stream size                      : 21.8 MiB (2%)

Text
ID                               : 224 (0xE0)-DVD-1
Format                           : EIA-608
MuxingMode                       : MPEG Video / DVD-Video
MuxingMode_MoreInfo              : Muxed in Video #1

General
Complete name                    : H:\МУЛЬТСЕРИАЛЫ\АВАТАР\Avatar The Last Air Bender_(Book 3-Fire)\Book 3-Fire\Book-3-disc-1\VIDEO_TS\VTS_05_2.VOB
Format                           : MPEG-PS
File size                        : 1 024 MiB
Duration                         : 17mn 59s
Overall bit rate                 : 7 959 Kbps

Video
ID                               : 224 (0xE0)
Format                           : MPEG Video
Format version                   : Version 2
Format profile                   : Main@Main
Format settings, Matrix          : Default
Duration                         : 17mn 59s
Bit rate mode                    : Variable
Bit rate                         : 7 067 Kbps
Nominal bit rate                 : 9 800 Kbps
Width                            : 720 pixels
Height                           : 480 pixels
Display aspect ratio             : 4:3
Frame rate                       : 29.970 fps
Standard                         : Component
Colorimetry                      : 4:2:0
Scan type                        : Interlaced
Scan order                       : Top Field First
Bits/(Pixel*Frame)               : 0.682
Stream size                      : 909 MiB (89%)

Audio #1
ID                               : 128 (0x80)
Format                           : AC-3
Format/Info                      : Audio Coding 3
Duration                         : 17mn 59s
Bit rate mode                    : Constant
Bit rate                         : 192 Kbps
Channel(s)                       : 2 channels
Channel positions                : L R
Sampling rate                    : 48.0 KHz
Video delay                      : -571ms
Stream size                      : 24.7 MiB (2%)

Audio #2
ID                               : 129 (0x81)
Format                           : AC-3
Format/Info                      : Audio Coding 3
Duration                         : 17mn 59s
Bit rate mode                    : Constant
Bit rate                         : 192 Kbps
Channel(s)                       : 2 channels
Channel positions                : L R
Sampling rate                    : 48.0 KHz
Video delay                      : -571ms
Stream size                      : 24.7 MiB (2%)

Audio #3
ID                               : 130 (0x82)
Format                           : AC-3
Format/Info                      : Audio Coding 3
Duration                         : 17mn 59s
Bit rate mode                    : Constant
Bit rate                         : 192 Kbps
Channel(s)                       : 2 channels
Channel positions                : L R
Sampling rate                    : 48.0 KHz
Video delay                      : -571ms
Stream size                      : 24.7 MiB (2%)

Text
ID                               : 224 (0xE0)-DVD-1
Format                           : EIA-608
MuxingMode                       : MPEG Video / DVD-Video
MuxingMode_MoreInfo              : Muxed in Video #1

General
Complete name                    : H:\МУЛЬТСЕРИАЛЫ\АВАТАР\Avatar The Last Air Bender_(Book 3-Fire)\Book 3-Fire\Book-3-disc-1\VIDEO_TS\VTS_05_3.VOB
Format                           : MPEG-PS
File size                        : 1 024 MiB
Duration                         : 18mn 28s
Overall bit rate                 : 7 751 Kbps

Video
ID                               : 224 (0xE0)
Format                           : MPEG Video
Format version                   : Version 2
Format profile                   : Main@Main
Format settings, Matrix          : Default
Duration                         : 18mn 28s
Bit rate mode                    : Variable
Bit rate                         : 6 868 Kbps
Nominal bit rate                 : 9 800 Kbps
Width                            : 720 pixels
Height                           : 480 pixels
Display aspect ratio             : 4:3
Frame rate                       : 29.970 fps
Standard                         : Component
Colorimetry                      : 4:2:0
Scan type                        : Interlaced
Scan order                       : Top Field First
Bits/(Pixel*Frame)               : 0.663
Stream size                      : 907 MiB (89%)

Audio #1
ID                               : 128 (0x80)
Format                           : AC-3
Format/Info                      : Audio Coding 3
Duration                         : 18mn 28s
Bit rate mode                    : Constant
Bit rate                         : 192 Kbps
Channel(s)                       : 2 channels
Channel positions                : L R
Sampling rate                    : 48.0 KHz
Video delay                      : -274ms
Stream size                      : 25.4 MiB (2%)

Audio #2
ID                               : 129 (0x81)
Format                           : AC-3
Format/Info                      : Audio Coding 3
Duration                         : 18mn 28s
Bit rate mode                    : Constant
Bit rate                         : 192 Kbps
Channel(s)                       : 2 channels
Channel positions                : L R
Sampling rate                    : 48.0 KHz
Video delay                      : -274ms
Stream size                      : 25.4 MiB (2%)

Audio #3
ID                               : 130 (0x82)
Format                           : AC-3
Format/Info                      : Audio Coding 3
Duration                         : 18mn 28s
Bit rate mode                    : Constant
Bit rate                         : 192 Kbps
Channel(s)                       : 2 channels
Channel positions                : L R
Sampling rate                    : 48.0 KHz
Video delay                      : -274ms
Stream size                      : 25.4 MiB (2%)

Text
ID                               : 224 (0xE0)-DVD-1
Format                           : EIA-608
MuxingMode                       : MPEG Video / DVD-Video
MuxingMode_MoreInfo              : Muxed in Video #1

General
Complete name                    : H:\МУЛЬТСЕРИАЛЫ\АВАТАР\Avatar The Last Air Bender_(Book 3-Fire)\Book 3-Fire\Book-3-disc-1\VIDEO_TS\VTS_05_4.VOB
Format                           : MPEG-PS
File size                        : 1 024 MiB
Duration                         : 15mn 56s
Overall bit rate                 : 8 982 Kbps

Video
ID                               : 224 (0xE0)
Format                           : MPEG Video
Format version                   : Version 2
Format profile                   : Main@Main
Format settings, Matrix          : Default
Duration                         : 15mn 56s
Bit rate mode                    : Variable
Bit rate                         : 8 049 Kbps
Nominal bit rate                 : 9 800 Kbps
Width                            : 720 pixels
Height                           : 480 pixels
Display aspect ratio             : 4:3
Frame rate                       : 29.970 fps
Standard                         : Component
Colorimetry                      : 4:2:0
Scan type                        : Interlaced
Scan order                       : Top Field First
Bits/(Pixel*Frame)               : 0.777
Stream size                      : 918 MiB (90%)

Audio #1
ID                               : 128 (0x80)
Format                           : AC-3
Format/Info                      : Audio Coding 3
Duration                         : 15mn 56s
Bit rate mode                    : Constant
Bit rate                         : 192 Kbps
Channel(s)                       : 2 channels
Channel positions                : L R
Sampling rate                    : 48.0 KHz
Video delay                      : -233ms
Stream size                      : 21.9 MiB (2%)

Audio #2
ID                               : 129 (0x81)
Format                           : AC-3
Format/Info                      : Audio Coding 3
Duration                         : 15mn 56s
Bit rate mode                    : Constant
Bit rate                         : 192 Kbps
Channel(s)                       : 2 channels
Channel positions                : L R
Sampling rate                    : 48.0 KHz
Video delay                      : -233ms
Stream size                      : 21.9 MiB (2%)

Audio #3
ID                               : 130 (0x82)
Format                           : AC-3
Format/Info                      : Audio Coding 3
Duration                         : 15mn 56s
Bit rate mode                    : Constant
Bit rate                         : 192 Kbps
Channel(s)                       : 2 channels
Channel positions                : L R
Sampling rate                    : 48.0 KHz
Video delay                      : -233ms
Stream size                      : 21.9 MiB (2%)

Text
ID                               : 224 (0xE0)-DVD-1
Format                           : EIA-608
MuxingMode                       : MPEG Video / DVD-Video
MuxingMode_MoreInfo              : Muxed in Video #1

General
Complete name                    : H:\МУЛЬТСЕРИАЛЫ\АВАТАР\Avatar The Last Air Bender_(Book 3-Fire)\Book 3-Fire\Book-3-disc-1\VIDEO_TS\VTS_05_5.VOB
Format                           : MPEG-PS
File size                        : 1 024 MiB

Video
ID                               : 224 (0xE0)
Format                           : MPEG Video
Format version                   : Version 2
Format profile                   : Main@Main
Format settings, Matrix          : Default
Bit rate mode                    : Variable
Bit rate                         : 9 800 Kbps
Width                            : 720 pixels
Height                           : 480 pixels
Display aspect ratio             : 4:3
Frame rate                       : 29.970 fps
Standard                         : Component
Colorimetry                      : 4:2:0
Scan type                        : Interlaced
Scan order                       : Top Field First
Bits/(Pixel*Frame)               : 0.946

Audio #1
ID                               : 128 (0x80)
Format                           : AC-3
Format/Info                      : Audio Coding 3
Bit rate mode                    : Constant
Bit rate                         : 192 Kbps
Channel(s)                       : 2 channels
Channel positions                : L R
Sampling rate                    : 48.0 KHz
Video delay                      : -306ms

Audio #2
ID                               : 129 (0x81)
Format                           : AC-3
Format/Info                      : Audio Coding 3
Bit rate mode                    : Constant
Bit rate                         : 192 Kbps
Channel(s)                       : 2 channels
Channel positions                : L R
Sampling rate                    : 48.0 KHz
Video delay                      : -306ms

Audio #3
ID                               : 130 (0x82)
Format                           : AC-3
Format/Info                      : Audio Coding 3
Bit rate mode                    : Constant
Bit rate                         : 192 Kbps
Channel(s)                       : 2 channels
Channel positions                : L R
Sampling rate                    : 48.0 KHz
Video delay                      : -306ms

Text
ID                               : 224 (0xE0)-DVD-1
Format                           : EIA-608
MuxingMode                       : MPEG Video / DVD-Video
MuxingMode_MoreInfo              : Muxed in Video #1

General
Complete name                    : H:\МУЛЬТСЕРИАЛЫ\АВАТАР\Avatar The Last Air Bender_(Book 3-Fire)\Book 3-Fire\Book-3-disc-1\VIDEO_TS\VTS_05_6.VOB
Format                           : MPEG-PS
File size                        : 1 024 MiB
Duration                         : 18mn 31s
Overall bit rate                 : 7 729 Kbps

Video
ID                               : 224 (0xE0)
Format                           : MPEG Video
Format version                   : Version 2
Format profile                   : Main@Main
Format settings, Matrix          : Default
Duration                         : 18mn 31s
Bit rate mode                    : Variable
Bit rate                         : 6 847 Kbps
Nominal bit rate                 : 9 800 Kbps
Width                            : 720 pixels
Height                           : 480 pixels
Display aspect ratio             : 4:3
Frame rate                       : 29.970 fps
Standard                         : Component
Colorimetry                      : 4:2:0
Scan type                        : Interlaced
Scan order                       : Top Field First
Bits/(Pixel*Frame)               : 0.661
Stream size                      : 907 MiB (89%)

Audio #1
ID                               : 128 (0x80)
Format                           : AC-3
Format/Info                      : Audio Coding 3
Duration                         : 18mn 31s
Bit rate mode                    : Constant
Bit rate                         : 192 Kbps
Channel(s)                       : 2 channels
Channel positions                : L R
Sampling rate                    : 48.0 KHz
Video delay                      : -451ms
Stream size                      : 25.4 MiB (2%)

Audio #2
ID                               : 129 (0x81)
Format                           : AC-3
Format/Info                      : Audio Coding 3
Duration                         : 18mn 31s
Bit rate mode                    : Constant
Bit rate                         : 192 Kbps
Channel(s)                       : 2 channels
Channel positions                : L R
Sampling rate                    : 48.0 KHz
Video delay                      : -451ms
Stream size                      : 25.4 MiB (2%)

Audio #3
ID                               : 130 (0x82)
Format                           : AC-3
Format/Info                      : Audio Coding 3
Duration                         : 18mn 31s
Bit rate mode                    : Constant
Bit rate                         : 192 Kbps
Channel(s)                       : 2 channels
Channel positions                : L R
Sampling rate                    : 48.0 KHz
Video delay                      : -451ms
Stream size                      : 25.4 MiB (2%)

Text
ID                               : 224 (0xE0)-DVD-1
Format                           : EIA-608
MuxingMode                       : MPEG Video / DVD-Video
MuxingMode_MoreInfo              : Muxed in Video #1

General
Complete name                    : H:\МУЛЬТСЕРИАЛЫ\АВАТАР\Avatar The Last Air Bender_(Book 3-Fire)\Book 3-Fire\Book-3-disc-1\VIDEO_TS\VTS_05_7.VOB
Format                           : MPEG-PS
File size                        : 1 024 MiB
Duration                         : 16mn 58s
Overall bit rate                 : 8 437 Kbps

Video
ID                               : 224 (0xE0)
Format                           : MPEG Video
Format version                   : Version 2
Format profile                   : Main@Main
Format settings, Matrix          : Default
Duration                         : 16mn 58s
Bit rate mode                    : Variable
Bit rate                         : 7 526 Kbps
Nominal bit rate                 : 9 800 Kbps
Width                            : 720 pixels
Height                           : 480 pixels
Display aspect ratio             : 4:3
Frame rate                       : 29.970 fps
Standard                         : Component
Colorimetry                      : 4:2:0
Scan type                        : Interlaced
Scan order                       : Top Field First
Bits/(Pixel*Frame)               : 0.727
Stream size                      : 913 MiB (89%)

Audio #1
ID                               : 128 (0x80)
Format                           : AC-3
Format/Info                      : Audio Coding 3
Duration                         : 16mn 58s
Bit rate mode                    : Constant
Bit rate                         : 192 Kbps
Channel(s)                       : 2 channels
Channel positions                : L R
Sampling rate                    : 48.0 KHz
Video delay                      : -187ms
Stream size                      : 23.3 MiB (2%)

Audio #2
ID                               : 129 (0x81)
Format                           : AC-3
Format/Info                      : Audio Coding 3
Duration                         : 16mn 58s
Bit rate mode                    : Constant
Bit rate                         : 192 Kbps
Channel(s)                       : 2 channels
Channel positions                : L R
Sampling rate                    : 48.0 KHz
Video delay                      : -187ms
Stream size                      : 23.3 MiB (2%)

Audio #3
ID                               : 130 (0x82)
Format                           : AC-3
Format/Info                      : Audio Coding 3
Duration                         : 16mn 58s
Bit rate mode                    : Constant
Bit rate                         : 192 Kbps
Channel(s)                       : 2 channels
Channel positions                : L R
Sampling rate                    : 48.0 KHz
Video delay                      : -187ms
Stream size                      : 23.3 MiB (2%)

Text
ID                               : 224 (0xE0)-DVD-1
Format                           : EIA-608
MuxingMode                       : MPEG Video / DVD-Video
MuxingMode_MoreInfo              : Muxed in Video #1

General
Complete name                    : H:\МУЛЬТСЕРИАЛЫ\АВАТАР\Avatar The Last Air Bender_(Book 3-Fire)\Book 3-Fire\Book-3-disc-1\VIDEO_TS\VTS_05_8.VOB
Format                           : MPEG-PS
File size                        : 409 MiB
Duration                         : 6mn 48s
Overall bit rate                 : 8 392 Kbps

Video
ID                               : 224 (0xE0)
Format                           : MPEG Video
Format version                   : Version 2
Format profile                   : Main@Main
Format settings, Matrix          : Default
Duration                         : 6mn 48s
Bit rate mode                    : Variable
Bit rate                         : 7 482 Kbps
Nominal bit rate                 : 9 800 Kbps
Width                            : 720 pixels
Height                           : 480 pixels
Display aspect ratio             : 4:3
Frame rate                       : 29.970 fps
Standard                         : Component
Colorimetry                      : 4:2:0
Scan type                        : Interlaced
Scan order                       : Top Field First
Bits/(Pixel*Frame)               : 0.722

Audio #1
ID                               : 128 (0x80)
Format                           : AC-3
Format/Info                      : Audio Coding 3
Duration                         : 6mn 48s
Bit rate mode                    : Constant
Bit rate                         : 192 Kbps
Channel(s)                       : 2 channels
Channel positions                : L R
Sampling rate                    : 48.0 KHz
Video delay                      : -131ms
Stream size                      : 9.35 MiB (2%)

Audio #2
ID                               : 129 (0x81)
Format                           : AC-3
Format/Info                      : Audio Coding 3
Duration                         : 6mn 48s
Bit rate mode                    : Constant
Bit rate                         : 192 Kbps
Channel(s)                       : 2 channels
Channel positions                : L R
Sampling rate                    : 48.0 KHz
Video delay                      : -131ms
Stream size                      : 9.35 MiB (2%)

Audio #3
ID                               : 130 (0x82)
Format                           : AC-3
Format/Info                      : Audio Coding 3
Duration                         : 6mn 48s
Bit rate mode                    : Constant
Bit rate                         : 192 Kbps
Channel(s)                       : 2 channels
Channel positions                : L R
Sampling rate                    : 48.0 KHz
Video delay                      : -131ms
Stream size                      : 9.35 MiB (2%)

Menu

Скриншоты меню
disc-1
disc-2
disc-3
disc-4

Скриншоты






реклама партнёра


Вернуться к началу
 Профиль Отправить личное сообщение  
 
   Похожие торренты   Автор   Торрент   Размер 
В этой теме нет новых непрочитанных сообщений. Аватар: Легенда об Аанге Книга первая / Avatar: The Last Airbender The book the First [Сезон: 1 / Серии: 20] [приключения, фэнтези, 2005] DVD9, Dub

hobbit1021

0 | 3

31.86 ГБ

В этой теме нет новых непрочитанных сообщений. Самолеты: Огонь и вода / Planes: Fire and RescueСамолеты: Огонь и вода / Planes: Fire and Rescue [мультфильм, комедия, приключения, семейный, 2014] HDRip, Dub [iTunes]

Dracon

68 | 3

1.37 ГБ

В этой теме нет новых непрочитанных сообщений. Аватар: Легенда о Корре / The Legend of Korra [S01: Серии 1-12 из 12] / [фэнтези, боевик, 2012] BDRemux 1080p, Dub, MVO, DVO, Orig, Subs (Rus, Eng) [Лицензия]

hobbit1021

0 | 3

82.42 ГБ

В этой теме нет новых непрочитанных сообщений. Книга джунглей / The Jungle Book [драма, фэнтези, приключения , 2016] BDRip, Dub [Лицензия]

salma3

0 | 0

1.46 ГБ

В этой теме нет новых непрочитанных сообщений. Самолеты: Огонь и вода / Planes: Fire and Rescue Самолеты: Огонь и вода / Planes: Fire and Rescue [мультфильм, комедия, приключения, семейный, 2014] BDRip 720p, Dub [iTunes]

Dracon

4 | 2

4.79 ГБ

В этой теме нет новых непрочитанных сообщений. Книга джунглей / The Jungle Book [Фэнтези, драма, приключения, 2016] BDRip 720p, Dub [Лицензия]

marya111

0 | 0

7.84 ГБ

В этой теме нет новых непрочитанных сообщений. Книга джунглей / The Jungle Book [фэнтези, драма, приключения, семейный, 2016] BDRip 720p, Dub [Лицензия]

salma3

24 | 9

8.91 ГБ


Начать новую тему Ответить на тему  [ 1 сообщение ] 




Для Мосгорсуда, Роскомнадзора и рекламодателей:: mosgorsud-torrent[собачка]yandex.ru