Торрент файл
скачать торрент магнет ссылка Добавлен: 17 июн 2014, 16:57
Размер: 31.86 ГБ
Сидеров: 0
Личеров: 3
Автор

СообщениеДобавлено: 17 июн 2014, 16:57 

Не в сети
Релизёр
Дата регистрации:
14 июл 2013, 00:47
Возраст: 19
Спасибо: 10 / 1
Сообщения: 21
Аватар: Легенда об Аанге Книга первая Tv 1-20 / Avatar: The Last Airbender The book the First
Страна: США
Жанр: Мультсериал, приключения, семейный, фэнтези.
Продолжительность: 22 минуты серия
Год выпуска: 2005
Перевод: Профессиональный (дублированный)
Русские субтитры: нет
Режиссёр: Michael Dante DiMartino / Майкл Данте Димартино / Bryan Konietzko / Брайан кониецко
Описание: «Аватар: Легенда об Аанге» — это история Аанга, двенадцатилетнего мальчика, который просто хотел жить обычной жизнью, но в его судьбу вмешалось появление долгожданного Аватара. Аанг призван возглавить борьбу с жестоким Народом Огня, чтобы восстановить равновесие в разобщенном войной мире. Аанг отправляется в опасное путешествие, чтобы спасти мир. Ему помогают юная, но отважная Маг Воды по имени Катара и её простодушный брат-воин по имени Сокка. Согласно легенде, Аангу надо выучить магию Воды, затем Земли, а затем Огня... В пути Аанг иногда забывает о своей нелегкой миссии, и тогда он просто радуется тому, что он обычный мальчишка
Благодарности
xfiles,multmir-за советы в изготовлении
Vavillla-за моральную поддержку и веру в светлое будущее

Используемый, при изготовлении релиза, софт
PgcDemux-демукс исходного DVD
BeLight-разпаковка дорожки в WAV формат
Vegas Pro 10.0-синхронизация, сборка в АС3 дорожки
MuxMan-сборка видео
DVDReMakePro-реавторинг диска

Список серий
1.Мальчик из айсберга
2.Возвращение Аватара
3.Южный Храм Воздуха
4.Воины Киоши
5.Царь Омашу
6.Пленные
7.Мир Духов: Зимнее Солнцестояние, Часть 1
8.Аватар Року: Зимнее Солнцестояние, Часть 2
9.Свиток Водной магии
10.Джет
11.Большой водораздел
12.Буря
13.Синяя маска
14.Гадалка
15.Бато из племени Воды
16.Дезертир
17.Северный Храм Воздуха
18.Учитель магии Воды
19.Осада Севера, Часть 1
20.Осада Севера, Часть 2

Доп. информация: Это оригинальное американское R1 издание с добавленной русской аудиодорожкой. Дорожки взяты с купленных мною дисков в интернет магазине Suzaku. Разбивку на 2ХDVD5 и раздачу запрещаю.
Что-бы выбрать русскую дорожку заходим в меню и выбираем испанскую.

сэмпл
Качество: DVD9 (Custom)
Формат: DVD-Video
Видео: NTSC 4:3 (720x480), 29.970 fps. 7 839 Kbps. VBR
Аудио: English: AC3, 2/0 (L,R) ch, 192 kbps
Аудио 2:Francais AC3, 2/0 (L,R) ch, 192 kbps
Аудио 3:Russian AC3, 2/0 (L,R) ch, 192 kbps
Субтитры: Нет
DVDInfo
Код:
Title: Book-1-disc-1
Size: 5.86 Gb ( 6 145 598,00 KBytes ) - DVD-9
Enabled regions: 1, 2, 3, 4, 5, 6, 7, 8

VTS_01 :
  Play Length: 00:00:00
  Video: NTSC 4:3 (720x480) VBR

VTS_02 :
  Play Length: 00:00:00
  Video: NTSC 4:3 (720x480) VBR
  Audio:
      English,
      Francais,
      Espanol,

VTS_03 :
  Play Length: 00:23:34+00:22:19+00:23:17+00:23:04+01:32:14
  Video: NTSC 4:3 (720x480) VBR
  Audio:
      English, AC3, 2/0 (L,R) ch, 192 kbps, Delay 0 mSec
      Francais, AC3, 2/0 (L,R) ch, 192 kbps, Delay 0 mSec
      Russian, AC3, 2/0 (L,R) ch, 192 kbps, Delay 0 mSec

VTS_04 :
  Play Length: 00:00:00
  Video: NTSC 4:3 (720x480) VBR

VTS_05 :
  Play Length: 00:06:34+00:06:34+00:00:54+00:01:03+00:01:14+00:01:13+00:01:12
  Video: NTSC 4:3 (720x480) VBR
  Audio:
      English, AC3, 2/0 (L,R) ch, 192 kbps, Delay 0 mSec

* Menus Information *

VIDEO_TS Menu
Video:
      NTSC 4:3 (720x480) VBR
English Language Unit :
      Title Menu

VTS_01 Menu
Video:
      NTSC 4:3 (720x480) VBR
English Language Unit :
      Root Menu

VTS_02 Menu
Video:
      NTSC 4:3 (720x480) VBR
Audio:
      Not specified (Dolby AC3, 2 ch)
English Language Unit :
      Root Menu
      Audio Menu
      Angle menu
      Chapter (PTT) Menu

VTS_03 Menu
Video:
      NTSC 4:3 (720x480) VBR
      Auto Pan&Scan, Auto Letterboxed
English Language Unit :
      Root Menu
      Audio Menu
      Chapter (PTT) Menu

VTS_04 Menu
Video:
      NTSC 4:3 (720x480) VBR
English Language Unit :
      Root Menu
      Angle menu

VTS_05 Menu
Video:
      NTSC 4:3 (720x480) VBR
      Auto Pan&Scan, Auto Letterboxed
English Language Unit :
      Root Menu

Подробные технические данные
General
Complete name : D:\Avatar The Last Air Bender_(Book 1-Water)\Book 1-Wate\Book-1-disc-1\VIDEO_TS\VIDEO_TS.VOB
Format : MPEG-PS
File size : 1.14 MiB
Duration : 33ms
Overall bit rate : 289 Mbps

Video
ID : 224 (0xE0)
Format : MPEG Video
Format version : Version 2
Format profile : Main@Main
Format settings, Matrix : Default
Duration : 33ms
Bit rate mode : Variable
Bit rate : 4 587 Kbps
Width : 720 pixels
Height : 480 pixels
Display aspect ratio : 4:3
Frame rate : 29.970 fps
Standard : NTSC
Colorimetry : 4:2:0
Scan type : Progressive
Scan order : Top Field First
Bits/(Pixel*Frame) : 0.443
Stream size : 18.5 KiB (2%)

General
Complete name : D:\Avatar The Last Air Bender_(Book 1-Water)\Book 1-Wate\Book-1-disc-1\VIDEO_TS\VTS_01_0.VOB
Format : MPEG-PS
File size : 262 KiB
Duration : 33ms
Overall bit rate : 65.0 Mbps

Video
ID : 224 (0xE0)
Format : MPEG Video
Format version : Version 2
Format profile : Main@Main
Format settings, Matrix : Default
Duration : 33ms
Bit rate mode : Variable
Bit rate : 4 587 Kbps
Width : 720 pixels
Height : 480 pixels
Display aspect ratio : 4:3
Frame rate : 29.970 fps
Standard : NTSC
Colorimetry : 4:2:0
Scan type : Progressive
Scan order : Top Field First
Bits/(Pixel*Frame) : 0.443
Stream size : 18.5 KiB (7%)

General
Complete name : D:\Avatar The Last Air Bender_(Book 1-Water)\Book 1-Wate\Book-1-disc-1\VIDEO_TS\VTS_01_1.VOB
Format : MPEG-PS
File size : 10.0 KiB
Duration : 33ms
Overall bit rate : 2 482 Kbps

Video
ID : 224 (0xE0)
Format : MPEG Video
Format version : Version 2
Format profile : Main@Main
Format settings, Matrix : Default
Duration : 33ms
Bit rate mode : Variable
Bit rate : 4 587 Kbps
Width : 720 pixels
Height : 480 pixels
Display aspect ratio : 4:3
Frame rate : 29.970 fps
Standard : NTSC
Colorimetry : 4:2:0
Scan type : Progressive
Scan order : Top Field First
Bits/(Pixel*Frame) : 0.443
Stream size : 18.5 KiB

General
Complete name : D:\Avatar The Last Air Bender_(Book 1-Water)\Book 1-Wate\Book-1-disc-1\VIDEO_TS\VTS_02_0.VOB
Format : MPEG-PS
File size : 42.1 MiB
Duration : 30s 80ms
Overall bit rate : 11.7 Mbps

Video
ID : 224 (0xE0)
Format : MPEG Video
Format version : Version 2
Format profile : Main@Main
Format settings, Matrix : Default
Duration : 348ms
Bit rate mode : Variable
Bit rate : 11.1 Mbps
Nominal bit rate : 9 800 Kbps
Width : 720 pixels
Height : 480 pixels
Display aspect ratio : 4:3
Frame rate : 29.970 fps
Standard : Component
Colorimetry : 4:2:0
Scan type : Progressive
Scan order : Top Field First
Bits/(Pixel*Frame) : 1.069
Stream size : 470 KiB (1%)

Audio
ID : 128 (0x80)
Format : AC-3
Format/Info : Audio Coding 3
Duration : 30s 80ms
Bit rate mode : Constant
Bit rate : 192 Kbps
Channel(s) : 2 channels
Channel positions : L R
Sampling rate : 48.0 KHz
Stream size : 705 KiB (2%)

Text
ID : 32 (0x20)
Format : RLE
Format/Info : Run-length encoding

General
Complete name : D:\Avatar The Last Air Bender_(Book 1-Water)\Book 1-Wate\Book-1-disc-1\VIDEO_TS\VTS_03_1.VOB
Format : MPEG-PS
File size : 1 024 MiB
Duration : 17mn 52s
Overall bit rate : 8 007 Kbps

Video
ID : 224 (0xE0)
Format : MPEG Video
Format version : Version 2
Format profile : Main@Main
Format settings, Matrix : Default
Duration : 17mn 52s
Bit rate mode : Variable
Bit rate : 7 049 Kbps
Nominal bit rate : 9 800 Kbps
Width : 720 pixels
Height : 480 pixels
Display aspect ratio : 4:3
Frame rate : 29.970 fps
Standard : Component
Colorimetry : 4:2:0
Scan type : Interlaced
Scan order : Top Field First
Bits/(Pixel*Frame) : 0.681
Stream size : 901 MiB (88%)

Audio #1
ID : 128 (0x80)
Format : AC-3
Format/Info : Audio Coding 3
Duration : 17mn 52s
Bit rate mode : Constant
Bit rate : 192 Kbps
Channel(s) : 2 channels
Channel positions : L R
Sampling rate : 48.0 KHz
Stream size : 24.5 MiB (2%)

Audio #2
ID : 129 (0x81)
Format : AC-3
Format/Info : Audio Coding 3
Duration : 17mn 52s
Bit rate mode : Constant
Bit rate : 192 Kbps
Channel(s) : 2 channels
Channel positions : L R
Sampling rate : 48.0 KHz
Stream size : 24.5 MiB (2%)

Audio #3
ID : 130 (0x82)
Format : AC-3
Format/Info : Audio Coding 3
Duration : 17mn 52s
Bit rate mode : Constant
Bit rate : 192 Kbps
Channel(s) : 2 channels
Channel positions : L R
Sampling rate : 48.0 KHz
Stream size : 32.7 MiB (3%)

Text
ID : 224 (0xE0)-DVD-1
Format : EIA-608
MuxingMode : MPEG Video / DVD-Video
MuxingMode_MoreInfo : Muxed in Video #1

General
Complete name : D:\Avatar The Last Air Bender_(Book 1-Water)\Book 1-Wate\Book-1-disc-1\VIDEO_TS\VTS_03_2.VOB
Format : MPEG-PS
File size : 1 024 MiB
Duration : 19mn 20s
Overall bit rate : 7 403 Kbps

Video
ID : 224 (0xE0)
Format : MPEG Video
Format version : Version 2
Format profile : Main@Main
Format settings, Matrix : Default
Duration : 19mn 20s
Bit rate mode : Variable
Bit rate : 6 469 Kbps
Nominal bit rate : 9 800 Kbps
Width : 720 pixels
Height : 480 pixels
Display aspect ratio : 4:3
Frame rate : 29.970 fps
Standard : Component
Colorimetry : 4:2:0
Scan type : Interlaced
Scan order : Top Field First
Bits/(Pixel*Frame) : 0.625
Stream size : 895 MiB (87%)

Audio #1
ID : 128 (0x80)
Format : AC-3
Format/Info : Audio Coding 3
Duration : 19mn 20s
Bit rate mode : Constant
Bit rate : 192 Kbps
Channel(s) : 2 channels
Channel positions : L R
Sampling rate : 48.0 KHz
Video delay : -631ms
Stream size : 26.6 MiB (3%)

Audio #2
ID : 129 (0x81)
Format : AC-3
Format/Info : Audio Coding 3
Duration : 19mn 20s
Bit rate mode : Constant
Bit rate : 192 Kbps
Channel(s) : 2 channels
Channel positions : L R
Sampling rate : 48.0 KHz
Video delay : -631ms
Stream size : 26.6 MiB (3%)

Audio #3
ID : 130 (0x82)
Format : AC-3
Format/Info : Audio Coding 3
Duration : 19mn 20s
Bit rate mode : Constant
Bit rate : 192 Kbps
Channel(s) : 2 channels
Channel positions : L R
Sampling rate : 48.0 KHz
Video delay : -663ms
Stream size : 35.4 MiB (3%)

Text
ID : 224 (0xE0)-DVD-1
Format : EIA-608
MuxingMode : MPEG Video / DVD-Video
MuxingMode_MoreInfo : Muxed in Video #1

General
Complete name : D:\Avatar The Last Air Bender_(Book 1-Water)\Book 1-Wate\Book-1-disc-1\VIDEO_TS\VTS_03_3.VOB
Format : MPEG-PS
File size : 1 024 MiB
Duration : 18mn 15s
Overall bit rate : 7 839 Kbps

Video
ID : 224 (0xE0)
Format : MPEG Video
Format version : Version 2
Format profile : Main@Main
Format settings, Matrix : Default
Duration : 18mn 15s
Bit rate mode : Variable
Bit rate : 6 952 Kbps
Nominal bit rate : 9 800 Kbps
Width : 720 pixels
Height : 480 pixels
Display aspect ratio : 4:3
Frame rate : 29.970 fps
Standard : Component
Colorimetry : 4:2:0
Scan type : Interlaced
Scan order : Top Field First
Bits/(Pixel*Frame) : 0.671
Stream size : 908 MiB (89%)

Audio #1
ID : 128 (0x80)
Format : AC-3
Format/Info : Audio Coding 3
Duration : 18mn 15s
Bit rate mode : Constant
Bit rate : 192 Kbps
Channel(s) : 2 channels
Channel positions : L R
Sampling rate : 48.0 KHz
Video delay : -218ms
Stream size : 25.1 MiB (2%)

Audio #2
ID : 129 (0x81)
Format : AC-3
Format/Info : Audio Coding 3
Duration : 18mn 15s
Bit rate mode : Constant
Bit rate : 192 Kbps
Channel(s) : 2 channels
Channel positions : L R
Sampling rate : 48.0 KHz
Video delay : -218ms
Stream size : 25.1 MiB (2%)

Audio #3
ID : 130 (0x82)
Format : AC-3
Format/Info : Audio Coding 3
Duration : 18mn 15s
Bit rate mode : Constant
Bit rate : 192 Kbps
Channel(s) : 2 channels
Channel positions : L R
Sampling rate : 48.0 KHz
Video delay : -218ms
Stream size : 25.1 MiB (2%)

General
Complete name : D:\Avatar The Last Air Bender_(Book 1-Water)\Book 1-Wate\Book-1-disc-1\VIDEO_TS\VTS_03_4.VOB
Format : MPEG-PS
File size : 1 024 MiB
Duration : 18mn 28s
Overall bit rate : 7 749 Kbps

Video
ID : 224 (0xE0)
Format : MPEG Video
Format version : Version 2
Format profile : Main@Main
Format settings, Matrix : Default
Duration : 18mn 28s
Bit rate mode : Variable
Bit rate : 6 865 Kbps
Nominal bit rate : 9 800 Kbps
Width : 720 pixels
Height : 480 pixels
Display aspect ratio : 4:3
Frame rate : 29.970 fps
Standard : Component
Colorimetry : 4:2:0
Scan type : Interlaced
Scan order : Top Field First
Bits/(Pixel*Frame) : 0.663
Stream size : 907 MiB (89%)

Audio #1
ID : 128 (0x80)
Format : AC-3
Format/Info : Audio Coding 3
Duration : 18mn 28s
Bit rate mode : Constant
Bit rate : 192 Kbps
Channel(s) : 2 channels
Channel positions : L R
Sampling rate : 48.0 KHz
Video delay : -264ms
Stream size : 25.4 MiB (2%)

Audio #2
ID : 129 (0x81)
Format : AC-3
Format/Info : Audio Coding 3
Duration : 18mn 28s
Bit rate mode : Constant
Bit rate : 192 Kbps
Channel(s) : 2 channels
Channel positions : L R
Sampling rate : 48.0 KHz
Video delay : -264ms
Stream size : 25.4 MiB (2%)

Audio #3
ID : 130 (0x82)
Format : AC-3
Format/Info : Audio Coding 3
Duration : 18mn 28s
Bit rate mode : Constant
Bit rate : 192 Kbps
Channel(s) : 2 channels
Channel positions : L R
Sampling rate : 48.0 KHz
Video delay : -328ms
Stream size : 25.4 MiB (2%)

Text
ID : 224 (0xE0)-DVD-1
Format : EIA-608
MuxingMode : MPEG Video / DVD-Video
MuxingMode_MoreInfo : Muxed in Video #1

General
Complete name : D:\Avatar The Last Air Bender_(Book 1-Water)\Book 1-Wate\Book-1-disc-1\VIDEO_TS\VTS_03_5.VOB
Format : MPEG-PS
File size : 1 024 MiB
Duration : 17mn 34s
Overall bit rate : 8 145 Kbps

Video
ID : 224 (0xE0)
Format : MPEG Video
Format version : Version 2
Format profile : Main@Main
Format settings, Matrix : Default
Duration : 17mn 34s
Bit rate mode : Variable
Bit rate : 7 245 Kbps
Nominal bit rate : 9 800 Kbps
Width : 720 pixels
Height : 480 pixels
Display aspect ratio : 4:3
Frame rate : 29.970 fps
Standard : Component
Colorimetry : 4:2:0
Scan type : Interlaced
Scan order : Top Field First
Bits/(Pixel*Frame) : 0.700
Stream size : 911 MiB (89%)

Audio #1
ID : 128 (0x80)
Format : AC-3
Format/Info : Audio Coding 3
Duration : 17mn 34s
Bit rate mode : Constant
Bit rate : 192 Kbps
Channel(s) : 2 channels
Channel positions : L R
Sampling rate : 48.0 KHz
Video delay : -626ms
Stream size : 24.1 MiB (2%)

Audio #2
ID : 129 (0x81)
Format : AC-3
Format/Info : Audio Coding 3
Duration : 17mn 34s
Bit rate mode : Constant
Bit rate : 192 Kbps
Channel(s) : 2 channels
Channel positions : L R
Sampling rate : 48.0 KHz
Video delay : -626ms
Stream size : 24.1 MiB (2%)

Audio #3
ID : 130 (0x82)
Format : AC-3
Format/Info : Audio Coding 3
Duration : 17mn 34s
Bit rate mode : Constant
Bit rate : 192 Kbps
Channel(s) : 2 channels
Channel positions : L R
Sampling rate : 48.0 KHz
Video delay : -626ms
Stream size : 24.1 MiB (2%)

General
Complete name : D:\Avatar The Last Air Bender_(Book 1-Water)\Book 1-Wate\Book-1-disc-1\VIDEO_TS\VTS_03_6.VOB
Format : MPEG-PS
File size : 201 MiB
Duration : 3mn 32s
Overall bit rate : 7 910 Kbps

Video
ID : 224 (0xE0)
Format : MPEG Video
Format version : Version 2
Format profile : Main@Main
Format settings, Matrix : Default
Duration : 3mn 32s
Bit rate mode : Variable
Bit rate : 7 020 Kbps
Nominal bit rate : 9 800 Kbps
Width : 720 pixels
Height : 480 pixels
Display aspect ratio : 4:3
Frame rate : 29.970 fps
Standard : Component
Colorimetry : 4:2:0
Scan type : Interlaced
Scan order : Top Field First
Bits/(Pixel*Frame) : 0.678

Audio #1
ID : 128 (0x80)
Format : AC-3
Format/Info : Audio Coding 3
Duration : 3mn 32s
Bit rate mode : Constant
Bit rate : 192 Kbps
Channel(s) : 2 channels
Channel positions : L R
Sampling rate : 48.0 KHz
Video delay : -296ms
Stream size : 4.87 MiB (2%)

Audio #2
ID : 129 (0x81)
Format : AC-3
Format/Info : Audio Coding 3
Duration : 3mn 32s
Bit rate mode : Constant
Bit rate : 192 Kbps
Channel(s) : 2 channels
Channel positions : L R
Sampling rate : 48.0 KHz
Video delay : -296ms
Stream size : 4.87 MiB (2%)

Audio #3
ID : 130 (0x82)
Format : AC-3
Format/Info : Audio Coding 3
Duration : 3mn 32s
Bit rate mode : Constant
Bit rate : 192 Kbps
Channel(s) : 2 channels
Channel positions : L R
Sampling rate : 48.0 KHz
Video delay : -296ms
Stream size : 4.87 MiB (2%)

Text
ID : 224 (0xE0)-DVD-1
Format : EIA-608
MuxingMode : MPEG Video / DVD-Video
MuxingMode_MoreInfo : Muxed in Video #1

General
Complete name : D:\Avatar The Last Air Bender_(Book 1-Water)\Book 1-Wate\Book-1-disc-1\VIDEO_TS\VTS_04_0.VOB
Format : MPEG-PS
File size : 4.44 MiB
Duration : 4s 137ms
Overall bit rate : 9 002 Kbps

Video
ID : 224 (0xE0)
Format : MPEG Video
Format version : Version 2
Format profile : Main@Main
Format settings, Matrix : Default
Duration : 4s 137ms
Bit rate mode : Variable
Bit rate : 8 645 Kbps
Nominal bit rate : 9 800 Kbps
Width : 720 pixels
Height : 480 pixels
Display aspect ratio : 4:3
Frame rate : 29.970 fps
Standard : Component
Colorimetry : 4:2:0
Scan type : Interlaced
Scan order : Top Field First
Bits/(Pixel*Frame) : 0.835
Stream size : 4.26 MiB (96%)

General
Complete name : D:\Avatar The Last Air Bender_(Book 1-Water)\Book 1-Wate\Book-1-disc-1\VIDEO_TS\VTS_04_1.VOB
Format : MPEG-PS
File size : 10.0 KiB
Duration : 33ms
Overall bit rate : 2 482 Kbps

Video
ID : 224 (0xE0)
Format : MPEG Video
Format version : Version 2
Format profile : Main@Main
Format settings, Matrix : Default
Duration : 33ms
Bit rate mode : Variable
Bit rate : 4 587 Kbps
Width : 720 pixels
Height : 480 pixels
Display aspect ratio : 4:3
Frame rate : 29.970 fps
Standard : NTSC
Colorimetry : 4:2:0
Scan type : Progressive
Scan order : Top Field First
Bits/(Pixel*Frame) : 0.443
Stream size : 18.5 KiB

General
Complete name : D:\Avatar The Last Air Bender_(Book 1-Water)\Book 1-Wate\Book-1-disc-1\VIDEO_TS\VTS_05_1.VOB
Format : MPEG-PS
File size : 633 MiB
Duration : 6mn 34s
Overall bit rate : 13.5 Mbps

Video
ID : 224 (0xE0)
Format : MPEG Video
Format version : Version 2
Format profile : Main@Main
Format settings, Matrix : Default
Duration : 348ms
Bit rate mode : Variable
Bit rate : 12.7 Mbps
Nominal bit rate : 9 800 Kbps
Width : 720 pixels
Height : 480 pixels
Display aspect ratio : 4:3
Frame rate : 29.970 fps
Standard : Component
Colorimetry : 4:2:0
Scan type : Interlaced
Scan order : Top Field First
Bits/(Pixel*Frame) : 1.229
Stream size : 541 KiB (0%)

Audio
ID : 128 (0x80)
Format : AC-3
Format/Info : Audio Coding 3
Duration : 6mn 34s
Bit rate mode : Constant
Bit rate : 192 Kbps
Channel(s) : 2 channels
Channel positions : L R
Sampling rate : 48.0 KHz
Stream size : 9.03 MiB (1%)

Скриншоты меню

Скриншоты






реклама партнёра


Вернуться к началу
 Профиль Отправить личное сообщение  
 
   Похожие торренты   Автор   Торрент   Размер 
В этой теме нет новых непрочитанных сообщений. Аватар: Легенда об Аанге Книга 3.Огонь / Avatar: The Last Airbender The book 3.Fire [Сезон: 3 / Серии: 21] [Мультсериал, приключения, фэнтези, 2007] DVD9, Dub

hobbit1021

1 | 2

28.79 ГБ

В этой теме нет новых непрочитанных сообщений. Аватар: Легенда о Корре / The Legend of Korra [S01: Серии 1-12 из 12] / [фэнтези, боевик, 2012] BDRemux 1080p, Dub, MVO, DVO, Orig, Subs (Rus, Eng) [Лицензия]

hobbit1021

0 | 3

82.42 ГБ

В этой теме нет новых непрочитанных сообщений. Книга джунглей / The Jungle Book [драма, фэнтези, приключения , 2016] BDRip, Dub [Лицензия]

salma3

0 | 0

1.46 ГБ

В этой теме нет новых непрочитанных сообщений. Книга джунглей / The Jungle Book [Фэнтези, драма, приключения, 2016] BDRip 720p, Dub [Лицензия]

marya111

0 | 0

7.84 ГБ

В этой теме нет новых непрочитанных сообщений. Книга джунглей / The Jungle Book [фэнтези, драма, приключения, семейный, 2016] BDRip 720p, Dub [Лицензия]

salma3

24 | 9

8.91 ГБ

В этой теме нет новых непрочитанных сообщений. Книга джунглей / The Jungle Book [Фэнтези, драма, приключения, семейный, 2016] BDRip 1080p, Dub [Лицензия] [3D-Video]

salma3

118 | 29

16.68 ГБ

В этой теме нет новых непрочитанных сообщений. Книга джунглей / The Jungle Book [фэнтези, драма, приключения, семейный, 2016] BDRip 1080p, Dub [чистый звук]

salma3

3545 | 90

7.14 ГБ


Начать новую тему Ответить на тему  [ 1 сообщение ] 




Для Мосгорсуда, Роскомнадзора и рекламодателей:: mosgorsud-torrent[собачка]yandex.ru