Торрент файл
скачать торрент магнет ссылка Добавлен: 05 июн 2014, 23:49
Размер: 7.66 ГБ
Сидеров: 8
Личеров: 12
Автор

СообщениеДобавлено: 05 июн 2014, 23:49 

Не в сети
Супермодератор
Аватара пользователя
Дата регистрации:
15 фев 2012, 16:44
Возраст: 27
Спасибо: 5130 / 2089
Сообщения: 17350
Бросок кобры: G.I. Joe: Дезертиры / G.I. Joe: Renegades

Год выпуска: 2010 - 2011
Жанр: мультфильм, боевик, приключения
Режиссер: Рэнди Майерс / Randy Myers, Кевин Алтери / Kevin Altieri, Скотт Берн / Scott Bern...

Роли озвучивали: Джейсон Мэрсден, Мэттью Кинг, Кевин Майкл Ричардсон, Наталья Сиглиути, Дэвид Кэй, Татьяна Яссукович, Чарльз Адлер, Чарли Шлэттер, Ника Футтерман, Джонни Месснер...

Описание: Команда юных бойцов специального назначения оказывается вне закона после неудачно проведенной разведывательной операции на одном из объектов корпорации «Кобра Индастриз». Теперь заклейменные за преступления, которых не совершали, они вынуждены бороться. Преследуемые властями и наемниками «Кобры», ребята должны мобилизовать все силы и способности, чтобы доказать свою невиновность и явить миру истинное лицо коварной корпорации и ее лидера — таинственного Адама де Кобрея.




Выпущено: США / Hasbro Studios, Darby Pop Productions
Продолжительность: 26 х ~ 00:21:00
Перевод: Профессиональный (дублированный)

Файл
Качество: DVDRip
Формат файла: AVI
Видео кодек: XviD
Аудио кодек: AC3
Видео: 720x400 (16:9), XViD 1800 Кбит/сек 25,000 fps / Бит/(Пиксели*Кадры): 0.250
Аудио: Dolby Digital Audio Russian 192 kbps 2.0 / 48 kHz

01. Падение – часть 1 / The Descent: Part 1, 26 ноября 2010
02. Падение – часть 2 / The Descent: Part 2, 26 ноября 2010
03. Ярость / Rage, 3 декабря 2010
04. Дредноксы атакуют / Dreadnoks Rising, 10 декабря 2010
05. Посылка / The Package, 17 декабря 2010
06. Возвращение Арашикаги – часть 1 / Return of the Arashikage Part 1, 24 декабря 2010
07. Возвращение Арашикаги – часть 2 / Return of the Arashikage Part 2, 24 декабря 2010
08. За решеткой / Busted, 7 января 2011
09. Враг моего врага / The Enemy of My Enemy, 14 января 2011
10. Жаркая схватка / Fire Fight, 28 января 2011
11. Возвращение домой – часть 1 / Homecoming Part 1, 4 февраля 2011
12. Возвращение домой – часть 2 / Homecoming Part 2, 11 февраля 2011
13. Братство света / Brothers of Light, 11 марта 2011
14. Найди 10 отличий / Knockoffs, 18 марта 2011
15. Белая тьма / White Out, 25 марта 2011
16. Мореплаватели / Shipwrecked, 16 апреля 2011
17. Замок Дестро / Castle Destro, 23 апреля 2011
18. Союз Змеи / Union of the Snake, 30 апреля 2011
19. Укус Анаконды / The Anaconda Strain, 7 мая 2011
20. Возвращение с того света / Prodigal, 14 мая 2011
21. Аномалия / The Anomaly, 11 июня 2011
22. На острие / Cutting Edge, 18 июня 2011
23. Кузены / Cousins, 25 июня 2011
24. Под землей / Going Underground, 9 июля 2011
25. Разоблачение – часть 1 / Revelations: Part 1, 16 июля 2011
26. Разоблачение – часть 2 / Revelations: Part 2, 23 июля 2011
Внимание! Раздача ведётся путём добавления новых серий; при каждом добавлении создаётся новый торрент-файл. Чтобы начать докачку новой серии, пользователям необходимо сделать следующее:
(1) остановить скачивание;
(2) удалить старый торрент-файл у себя из клиента (старые серии удалять не надо);
(3) скачать новый торрент-файл и запустить его у себя в клиенте вместо старого, при этом указать клиенту путь в старую папку куда и должно происходить скачивание новых серий.
Ваш клиент при этом должен произвести хеширование (проверку) старой папки (если он не производит проверку сам – помогите ему сделать это), и будет докачивать только те серии которых у вас ещё нет. Старые серии при этом не удаляются, а продолжают раздаваться!
Если вы уже удалили старые серии, то предотвратить повторную закачку старых серий можно, отжав галочку в соответствующих местах при запуске нового торрент-файла. Желательно старые серии не удалять как можно дольше, чтобы релизёр не столько продолжал раздавать старые серии, а смог сконцентрироваться на новых.
Общее
Полное имя : Brosok.Kobry.Dezertiry.2010.D.S1.DVDRip_[new-Team]_by_avproh\01.Padenie.ch1.avi
Формат : AVI
Формат/Информация : Audio Video Interleave
Размер файла : 301 Мбайт
Продолжительность : 21 м.
Общий поток : 2002 Кбит/сек
Программа кодирования : VirtualDubModRus 1.5.10.2 (build 2542/release)
Библиотека кодирования : VirtualDubMod build 2542/release

Видео
Идентификатор : 0
Формат : MPEG-4 Visual
Профиль формата : Advanced Simple@L5
Параметр BVOP формата : 1
Параметр QPel формата : Нет
Параметр GMC формата : Без точки перехода
Параметр матрицы формата : Выборочная
Идентификатор кодека : XVID
Идентификатор кодека/Подсказка : XviD
Продолжительность : 21 м.
Битрейт : 1800 Кбит/сек
Ширина : 720 пикселей
Высота : 400 пикселей
Соотношение сторон : 16:9
Частота кадров : 25,000 кадров/сек
Цветовое пространство : YUV
Субдискретизация насыщенности : 4:2:0
Битовая глубина : 8 бит
Тип развёртки : Прогрессивная
Метод сжатия : С потерями
Бит/(Пиксели*Кадры) : 0.250
Размер потока : 271 Мбайт (90%)
Библиотека кодирования : XviD 73

Аудио
Идентификатор : 1
Формат : AC-3
Формат/Информация : Audio Coding 3
Расширение режима : CM (complete main)
Параметр Endianness формата : Big
Идентификатор кодека : 2000
Продолжительность : 21 м.
Вид битрейта : Постоянный
Битрейт : 192 Кбит/сек
Каналы : 2 канала
Расположение каналов : Front: L R
Частота : 48,0 КГц
Битовая глубина : 16 бит
Метод сжатия : С потерями
Размер потока : 28,9 Мбайт (10%)
Выравнивание : Разделение по промежуткам
Продолжительность промежутка : 40 мс. (1,00 видеокадр)
Время предзагрузки промежутка : 500 мс.


Раздача от:


_________________



реклама партнёра


Вернуться к началу
 Профиль Отправить личное сообщение  
 
   Похожие торренты   Автор   Торрент   Размер 
В этой теме нет новых непрочитанных сообщений. Кунг-фу Панда 3 / Kung Fu Panda 3 [мультфильм, боевик, комедия, приключения, семейный, 2016] Blu-Ray, Dub [Лицензия]

salma3

21 | 9

38.98 ГБ

В этой теме нет новых непрочитанных сообщений. Зверополис / Zootopia (Байрон Ховард, Рич Мур, Джаред Буш) [2016, мультфильм, боевик, комедия, криминал, приключения, семейный, HDRip | Лицензия] Dub

marya111

2178 | 80

1.45 ГБ

В этой теме нет новых непрочитанных сообщений. Особенный (Кирилл Злотник) [2006, мультфильм, приключения, DVDRip | Лицензия]

Nickolas3435

19 | 5

1.37 ГБ

В этой теме нет новых непрочитанных сообщений. Кунг-фу Панда 3 / Kung Fu Panda 3 (Алессандро Карлони, Дженнифер Ю) [2016, Мультфильм, боевик, комедия, приключения, семейный, HDRip | Лицензия] Dub

marya111

22 | 2

744.91 МБ

В этой теме нет новых непрочитанных сообщений. Зверополис / Zootopia (Байрон Ховард, Рич Мур, Джаред Буш) [2016, мультфильм, боевик, комедия, криминал, приключения, семейный, BDRip 720p | Лицензия] Dub

marya111

342 | 11

3.32 ГБ

В этой теме нет новых непрочитанных сообщений. Кунг-фу Панда 3 / Kung Fu Panda 3 (Алессандро Карлони, Дженнифер Ю) [2016, Мультфильм, боевик, комедия, приключения, семейный, BDRip-AVC | Лицензия] Dub

marya111

51 | 1

2.45 ГБ

В этой теме нет новых непрочитанных сообщений. Кунг-фу Панда 3 / Kung Fu Panda 3 (Алессандро Карлони, Дженнифер Ю) [2016, мультфильм, боевик, комедия, приключения, семейный, BDRip | Лицензия] Dub

marya111

0 | 0

1.45 ГБ


Начать новую тему Ответить на тему  [ 1 сообщение ] 




Для Мосгорсуда, Роскомнадзора и рекламодателей:: mosgorsud-torrent[собачка]yandex.ru