Торрент файл
скачать торрент магнет ссылка Добавлен: 23 май 2014, 11:42
Размер: 1.37 ГБ
Сидеров: 2
Личеров: 4
Автор

СообщениеДобавлено: 23 май 2014, 11:42 

Не в сети
Супермодератор
Аватара пользователя
Дата регистрации:
15 фев 2012, 16:44
Возраст: 28
Спасибо: 6589 / 2145
Сообщения: 44094
Год выхода: 2006
Жанр: Мультфильм, приключения, семейный
Режиссер: Стюарт Эванс / Stewart Evans

В ролях: Дафна Голдрик, Сэффрон Хендерсон, Дэвид Кэй, Скотт МакНил, Кирби Морроу

О фильме:
Наш герой понимает, что он закован в клетке вместе с другими дикими животными острова Конг.
Их всех зовут в самый что ни есть настоящий зоопарк острова Манхеттен.
Если вы со страхом думаете, что наш Конг снова станет великой угрозой всему живому, как его предок, вы ошибаетесь! Это совсем не тот Конг!

Страна: Великобритания
Студия: BKN New Media
Продолжительность: 01:18:44
Перевод: Профессиональный (дублированный) Лицензия

Файл
Кодек: h.264 (MKV)
Качество: DVDRip-AVC
Видео: AVC, 768 x 576, ~1996 kbps
Звук: AC-3, 6 ch, 448 kbps

Общее
Уникальный идентификатор : 168348648403719580577546155723716462494 (0x7EA6C532C2870C1E037BA147C20E879E)
Полное имя : F:Конг Возвращение в джунгли Kong Return To The Jungle [2006]kong_return_to_the_jungle (2006) DVD-AVC.mkv
Формат : Matroska
Версия формата : Version 2
Размер файла : 1,37 Гбайт
Продолжительность : 1 ч. 18 м.
Режим общего битрейта : Переменный
Общий поток : 2494 Кбит/сек
Программа кодирования : Lavf51.12.1
Библиотека кодирования : Lavf51.12.1
Видео
Идентификатор : 1
Формат : AVC
Формат/Информация : Advanced Video Codec
Профиль формата : Baseline@L3.1
Параметр CABAC формата : Нет
Параметр ReFrames формата : 1 кадр
Параметр GOP формата : M=1, N=12
Идентификатор кодека : V_MPEG4/ISO/AVC
Продолжительность : 1 ч. 18 м.
Вид битрейта : Переменный
Битрейт : 1996 Кбит/сек
Максимальный битрейт : 2940 Кбит/сек
Ширина : 768 пикселей
Высота : 576 пикселей
Соотношение сторон : 4:3
Режим частоты кадров : Постоянный
Частота кадров : 25,000 кадров/сек
Частота кадров в оригинале : 24,000 кадра/сек
Цветовое пространство : YUV
Субдискретизация насыщенности : 4:2:0
Битовая глубина : 8 бит
Тип развёртки : Прогрессивная
Бит/(Пиксели*Кадры) : 0.181
Размер потока : 1,10 Гбайт (80%)
Default : Да
Forced : Нет
Аудио
Идентификатор : 2
Формат : AC-3
Формат/Информация : Audio Coding 3
Расширение режима : CM (complete main)
Параметр Endianness формата : Big
Идентификатор кодека : A_AC3
Продолжительность : 1 ч. 18 м.
Вид битрейта : Постоянный
Битрейт : 448 Кбит/сек
Каналы : 6 каналов
Расположение каналов : Front: L C R, Side: L R, LFE
Частота : 48,0 КГц
Битовая глубина : 16 бит
Метод сжатия : С потерями
Размер потока : 252 Мбайт (18%)
Default : Да
Forced : Нет


_________________
Проголосуй за трекер Открытый торрент трекер - RUS-MEDIA.ORG

Проголосуй Открытый торрент трекер - RUS-MEDIA.ORG



реклама партнёра


Вернуться к началу
 Профиль Отправить личное сообщение  
 
   Похожие торренты   Автор   Торрент   Размер 
В этой теме нет новых непрочитанных сообщений. Из джунглей в джунгли / Jungle 2 Jungle [комедия, приключения, семейный, 1997] WEB-DLRip, Mvo

salma3

213 | 30

1.45 ГБ

В этой теме нет новых непрочитанных сообщений. Из джунглей в джунгли / Jungle 2 Jungle [комедия, приключения, семейный, 1997] WEBRip 720p, Mvo+Sub

salma3

52 | 20

4.37 ГБ

В этой теме нет новых непрочитанных сообщений. Страж-лев: Возвращение Рыка / The Lion Guard: Return of the Roar (Хауи Паркинс) [мультфильм, семейный, приключения, 2015] WEB-DLRip, dub [Чистый звук]

Dracon

2282 | 148

698.22 МБ

В этой теме нет новых непрочитанных сообщений. Возвращение в страну Оз / Return to Oz [ужасы, фэнтези, детектив, приключения, семейный, 1985] BDRip, Mvo

salma3

58 | 25

1.45 ГБ

В этой теме нет новых непрочитанных сообщений. Аладдин-2. Возвращение Джафара / The Return of Jafar [Полнометражный мультфильм, комедия, 1994] DVDRip, Dub [КПК]

salma3

90 | 4

227.62 МБ

В этой теме нет новых непрочитанных сообщений. Возвращение-помидоров-убийц / Return of the Killer Tomatoes [ужасы, фантастика, комеди, 1988] DVDRip, Mvo [Лицензия]

salma3

50 | 4

1.46 ГБ

В этой теме нет новых непрочитанных сообщений. Книга джунглей / The Jungle Book [фэнтези, драма, приключения, семейный, 2016] BDRip 720p, Dub [Лицензия]

salma3

24 | 9

8.91 ГБ


Начать новую тему Ответить на тему  [ 1 сообщение ] 




Для Мосгорсуда, Роскомнадзора и рекламодателей:: mosgorsud-torrent[собачка]yandex.ru