Торрент файл
скачать торрент магнет ссылка Добавлен: 27 апр 2014, 10:57
Размер: 2.86 ГБ
Сидеров: 0
Личеров: 3
Автор

СообщениеДобавлено: 27 апр 2014, 10:57 

Не в сети
Зам. Админа
Аватара пользователя
Дата регистрации:
02 дек 2010, 12:39
Спасибо: 12623 / 214
Сообщения: 28012
Год выхода: 2014
Жанр: Мультфильм, фэнтези, боевик, драма, криминал, детектив, приключения, семейный
Режиссер: Этан Сполдинг
В ролях: Джейсон О’Мара, Томас Гибсон, Морена Баккарин, Джанкарло Эспозито, Дэвид МакКаллум, Ксандер Беркли, Шон Маэр, Фред Татаскьор, Брюс Томас, Стюарт Аллан

О фильме:
Бэтмен узнает, что он имеет наследника, подростка сына, тайно посланного террористической группой Лига Убийц.

Качество: BDRip [720p]
Видео:  AVC,1280x720,23.976 fps,4500 Kbit/s
Аудио 1: AC3 48000Hz 6 каналов 384 Kbit/s-Русский
Аудио 2: AC3 48000Hz 6 каналов 640 Kbit/s-Английский
Продолжительность: 01:14:10
Перевод: Любительский (многоголосный) [DuBDraG ProJECT]
Субтитры: Русские (на надписи).

General
Unique ID                      : 210305737130306850295455673399725061429 (0x9E376962A70F3CAB8A0158F289B0F535)
Complete name                  : K:Новая папка (2)Сын Бэтмена .2014.720p.mkv
Format                         : Matroska
Format version                 : Version 4 / Version 2
File size                      : 2.86 GiB
Duration                       : 1h 14mn
Overall bit rate               : 5 525 Kbps
Encoded date                   : UTC 2014-04-26 19:09:17
Writing application            : mkvmerge v6.3.0 ('You can't stop me!') built on Jun 28 2013 20:09:41
Writing library                : libebml v1.3.0 + libmatroska v1.4.0

Video
ID                             : 1
Format                         : AVC
Format/Info                    : Advanced Video Codec
Format profile                 : High@L4.1
Format settings, CABAC         : Yes
Format settings, ReFrames      : 9 frames
Codec ID                       : V_MPEG4/ISO/AVC
Duration                       : 1h 14mn
Bit rate                       : 4 500 Kbps
Width                          : 1 280 pixels
Height                         : 720 pixels
Display aspect ratio           : 16:9
Frame rate                     : 23.976 fps
Color space                    : YUV
Chroma subsampling             : 4:2:0
Bit depth                      : 8 bits
Scan type                      : Progressive
Bits/(Pixel*Frame)             : 0.204
Stream size                    : 2.27 GiB (79%)
Writing library                : x264 core 138 r2358 9e941d1
Encoding settings              : cabac=1 / ref=9 / deblock=1:-1:-1 / analyse=0x3:0x133 / me=umh / subme=10 / psy=1 / psy_rd=0.70:0.00 / mixed_ref=1 / me_range=24 / chroma_me=1 / trellis=2 / 8x8dct=1 / cqm=0 / deadzone=21,11 / fast_pskip=0 / chroma_qp_offset=-2 / threads=6 / lookahead_threads=1 / sliced_threads=0 / nr=0 / decimate=0 / interlaced=0 / bluray_compat=0 / constrained_intra=0 / bframes=10 / b_pyramid=2 / b_adapt=2 / b_bias=0 / direct=3 / weightb=1 / open_gop=0 / weightp=2 / keyint=240 / keyint_min=23 / scenecut=40 / intra_refresh=0 / rc_lookahead=60 / rc=2pass / mbtree=0 / bitrate=4500 / ratetol=1.0 / qcomp=0.60 / qpmin=0 / qpmax=51 / qpstep=4 / cplxblur=20.0 / qblur=0.5 / vbv_maxrate=62500 / vbv_bufsize=78125 / nal_hrd=none / ip_ratio=1.40 / pb_ratio=1.30 / aq=1:0.60
Language                       : English
Default                        : Yes
Forced                         : No

Audio #1
ID                             : 2
Format                         : AC-3
Format/Info                    : Audio Coding 3
Mode extension                 : CM (complete main)
Codec ID                       : A_AC3
Duration                       : 1h 14mn
Bit rate mode                  : Constant
Bit rate                       : 384 Kbps
Channel(s)                     : 6 channels
Channel positions              : Front: L C R, Side: L R, LFE
Sampling rate                  : 48.0 KHz
Bit depth                      : 16 bits
Compression mode               : Lossy
Stream size                    : 204 MiB (7%)
Title                          : SkyeFilmTV
Language                       : Russian
Default                        : Yes
Forced                         : No

Audio #2
ID                             : 3
Format                         : AC-3
Format/Info                    : Audio Coding 3
Mode extension                 : CM (complete main)
Codec ID                       : A_AC3
Duration                       : 1h 14mn
Bit rate mode                  : Constant
Bit rate                       : 640 Kbps
Channel(s)                     : 6 channels
Channel positions              : Front: L C R, Side: L R, LFE
Sampling rate                  : 48.0 KHz
Bit depth                      : 16 bits
Compression mode               : Lossy
Stream size                    : 340 MiB (12%)
Title                          : English
Language                       : English
Default                        : No
Forced                         : No

Text
ID                             : 4
Format                         : ASS
Codec ID                       : S_TEXT/ASS
Codec ID/Info                  : Advanced Sub Station Alpha
Compression mode               : Lossless
Title                          : На надписи
Language                       : Russian
Default                        : Yes
Forced                         : No









реклама партнёра


Вернуться к началу
 Профиль  
 
   Похожие торренты   Автор   Торрент   Размер 
В этой теме нет новых непрочитанных сообщений. Лего Фильм: Бэтмен / The LEGO Batman Movie ( мультфильм, фэнтези, боевик, комедия, приключения, семейный, 2017) TS | D

marya111

1935 | 270

1.37 ГБ

В этой теме нет новых непрочитанных сообщений. Бэтмен / The LEGO Batman Movie [Мультфильм, фэнтези, боевик, 2017] BDRip 720p, Dub [Лицензия]

salma3

294 | 31

3.88 ГБ

В этой теме нет новых непрочитанных сообщений. Девять / 9 [мультфильм, фантастика, фэнтези, боевик, триллер, драма, детектив, приключения, 2009] BDRip 720p, Dub+Avo+Sub

salma3

167 | 9

3.1 ГБ

В этой теме нет новых непрочитанных сообщений. Семейка монстров / The Boxtrolls [мультфильм, фэнтези, комедия, приключения, семейный, 2014] BDRip 720p, Dub [iTunes]

Dracon

16 | 3

4.72 ГБ

В этой теме нет новых непрочитанных сообщений. Феи: Легенда о чудовище / Legend of the NeverBeast (Стив Лотер) [мультфильм, фэнтези, приключения, семейный, 2014] BDRip 720p, Dub+Sub [Лицензия]

Dracon

112 | 4

4.32 ГБ

В этой теме нет новых непрочитанных сообщений. Феи: Легенда о чудовище / Legend of the NeverBeast (Стив Лотер) [мультфильм, фэнтези, приключения, семейный, 2014] BDRip 720p, Dub [iTunes Russia]

Dracon

50 | 3

4.18 ГБ

В этой теме нет новых непрочитанных сообщений. Феи: Легенда о чудовище / Legend of the NeverBeast (Стив Лотер) [мультфильм, фэнтези, приключения, семейный, 2014] BDRip 720p, dub [чистый звук]

Dracon

38 | 4

2.39 ГБ


Начать новую тему Ответить на тему  [ 1 сообщение ] 




Для Мосгорсуда, Роскомнадзора и рекламодателей:: mosgorsud-torrent[собачка]yandex.ru