Торрент файл
скачать торрент магнет ссылка Добавлен: 24 мар 2014, 12:50
Размер: 7.39 ГБ
Сидеров: 344
Личеров: 152
Автор

СообщениеДобавлено: 24 мар 2014, 12:50 

Не в сети
Супермодератор
Аватара пользователя
Дата регистрации:
15 фев 2012, 16:44
Возраст: 27
Спасибо: 5143 / 2090
Сообщения: 17514
Год выхода: 2013
Жанр: мультфильм, фэнтези
Режиссер: Педер Педерсен, Ли Стрингер, Phillip Berg
В ролях: David Attar, Bethany Brown, Bill Courage, Jesse Inocalla, Megan Kinsley, Michael Patric, Scott Shantz, Jeff Evans Todd

О фильме:
Сюжет фильма разворачивается в волшебной стране Чима, существующей благодаря природной энергии Чи, которая изливается с вершины горы Кавора в виде водопада в реку Кавора. Река приносит энергию Чи к Священному Колодцу, где она преобразуется в магические кристаллы, которые обитатели Чимы используют для поддержания своей жизненной силы и питания энергией транспортных средств. Страна населена племенами разумных животных: Львы, Крокодилы, Орлы, Вороны, Волки и Гориллы. Много веков звери жили в мире, однако жадность племени Крокодилов привела к войне.
Официальный сайт

Страна: Дания, Индия, Таиланд
Студия: M2Film, Prime Focus, Cartoon Network
Продолжительность: 20х00:22:00
Перевод: Дублированный [SDI Media]

Файл
Кодек: XviD / AC3
Качество: WEB-DLRip
Видео: XviD, 720x400 (16:9), 23.976 fps, 2 191 Kbps (0.317 bit/pixel)
Звук: AC-3, 48.0 KHz, 2 ch, 192 Kbps, CBR

Семпл

General
Complete name : /Легенды Чимы Legends of Chima (2013) WEB-DLRip/01. Nachalo vojny.avi
Format : AVI
Format/Info : Audio Video Interleave
File size : 378 MiB
Duration : 22mn 4s
Overall bit rate : 2 392 Kbps
Writing application : VirtualDubMod 1.5.10.3 | http://www.virtualdub-fr.org || (build 2550/release)
Writing library : VirtualDubMod build 2550/release

Video
ID : 0
Format : MPEG-4 Visual
Format profile : Advanced Simple@L5
Format settings, BVOP : 2
Format settings, QPel : No
Format settings, GMC : No warppoints
Format settings, Matrix : Custom
Codec ID : XVID
Codec ID/Hint : XviD
Duration : 22mn 4s
Bit rate : 2 191 Kbps
Width : 720 pixels
Height : 400 pixels
Display aspect ratio : 16:9
Frame rate : 23.976 fps
Color space : YUV
Chroma subsampling : 4:2:0
Bit depth : 8 bits
Scan type : Progressive
Compression mode : Lossy
Bits/(Pixel*Frame) : 0.317
Stream size : 346 MiB (92%)
Writing library : XviD 64

Audio
ID : 1
Format : AC-3
Format/Info : Audio Coding 3
Mode extension : CM (complete main)
Format settings, Endianness : Big
Codec ID : 2000
Duration : 22mn 4s
Bit rate mode : Constant
Bit rate : 192 Kbps
Channel(s) : 2 channels
Channel positions : Front: L R
Sampling rate : 48.0 KHz
Bit depth : 16 bits
Compression mode : Lossy
Stream size : 30.3 MiB (8%)
Alignment : Split accross interleaves
Interleave, duration : 42 ms (1.00 video frame)
Interleave, preload duration : 500 ms


_________________



реклама партнёра


Вернуться к началу
 Профиль Отправить личное сообщение  
 
   Похожие торренты   Автор   Торрент   Размер 
В этой теме нет новых непрочитанных сообщений. Легенды / Legends / 1 сезон 1-7 серии из 10 [криминал, драма, 2014] WEB-DLRip, Mvo [BaibaKo]

salma3

18 | 7

3.83 ГБ

В этой теме нет новых непрочитанных сообщений. Легенды завтрашнего дня / DC's Legends of Tomorrow / 2 сезон 1-07 серии из 16 [Фантастика, боевик, 2016] WEB-DLRip, Mvo [LostFilm]

salma3

269 | 726

3.42 ГБ

В этой теме нет новых непрочитанных сообщений. Легенды завтрашнего дня / DC's Legends of Tomorrow / 1 сезон 1-15 серии из 16 [Фантастика, боевик, 2016] WEB-DLRip [NewStudio]

Dracon

31 | 68

7.89 ГБ

В этой теме нет новых непрочитанных сообщений. Легенды завтрашнего дня / DC's Legends of Tomorrow / 1 сезон 1-7 серия из 10 [Фантастика, боевик, 2016] WEB-DLRip, Mvo [Alternative Production]

salma3

14 | 15

4 ГБ

В этой теме нет новых непрочитанных сообщений. Легенды / Legends [S02] (Дэвид Семел, Брэд Тернер, Джон Беринг) [2015, драма, криминал, WEB-DLRip | NewStudio]

Nickolas3434

190 | 89

5.3 ГБ

В этой теме нет новых непрочитанных сообщений. Легенды / Legends [01x01-04 из 10] (Дэвид Семел, Брэд Тернер, Джон Беринг) [2014, драма, криминал, WEB-DLRip | AlexFilm]

Nickolas3435

38 | 13

1.95 ГБ

В этой теме нет новых непрочитанных сообщений. Легенды / Legends [02x01-05 из 10] (Дэвид Семел, Брэд Тернер, Джон Беринг) [2015, драма, криминал, WEB-DLRip | AlexFilm]

Dracon

2 | 1

2.5 ГБ


Начать новую тему Ответить на тему  [ 1 сообщение ] 




Для Мосгорсуда, Роскомнадзора и рекламодателей:: mosgorsud-torrent[собачка]yandex.ru