Торрент файл
скачать торрент магнет ссылка Добавлен: 05 мар 2014, 23:52
Размер: 1.48 ГБ
Сидеров: 12
Личеров: 4
Статус: (salma3)
Автор

СообщениеДобавлено: 05 мар 2014, 23:52 

Не в сети
Супермодератор
Аватара пользователя
Дата регистрации:
15 фев 2012, 16:44
Возраст: 27
Спасибо: 5848 / 2114
Сообщения: 26896
Бременские музыканты. Бесстрашная четверка / Die Furchtlosen Vier

Год выпуска: 1997
Жанр: приключения, полнометражный
Режиссер: Майкл Колдьюи, Эберхард Юнкерсдорф

В ролях: Олета Адамс, Марио Адорф, Дагмар Альтрихтер, Пеер Аугустински, Кэтлин Барр, Ханс-Вернер Буссингер, Гари Чок, Йен Джеймс Корлетт, Том Дайнингер, Майкл Донован

Описание: Однажды пес Бастер, кошка Гвендолин, осел Фред и петух Тортеллини сбежали от своих злых хозяев и встретились на проселочной дороге. Звери быстро подружились, потому что все они любили петь и мечтали стать звездами эстрады. Друзья решили создать поп-группу «Бесстрашная четверка» и для начала покорить своим искусством Париж. Но на их пути лежит город Бремен, где запрещено петь и смеяться. Здесь «Бесстрашную четверку» ожидают опасные приключения и ошеломляющий успех.



Страна: Германия, Warner Bros., Bioskop Film
Продолжительность: 01:24:03
Перевод: Профессиональный (двухголосый)

Файл
Качество: DVDRip
Формат файла: AVI
Видео кодек: XviD
Аудио кодек: MP3
Видео: 688x400 (1.72:1), 25 fps, MPEG-4 Visual (XviD), ~ 2191 kbps avg, 0.318 bit/pixel
Аудио#1: Русский: 48 kHz, MPEG Layer 3, 2 ch, ~192.00 kbps avg [двухголосый]
Аудио#2: Немецкий: 48 kHz, MPEG Layer 3, 2 ch, ~128.00 kbps avg [Оригинал]

Общее
Полное имя : Бременские музыканты. Бесстрашная четверка. 1997.avi
Формат : AVI
Формат/Информация : Audio Video Interleave
Размер файла : 1,48 Гбайт
Продолжительность : 1 ч. 24 м.
Общий поток : 2525 Кбит/сек
Программа кодирования : VirtualDubMod 1.5.10.2 (build 2540/release)
Библиотека кодирования : VirtualDubMod build 2540/release

Видео
Идентификатор : 0
Формат : MPEG-4 Visual
Профиль формата : Advanced Simple@L5
Параметр BVOP формата : 1
Параметр QPel формата : Нет
Параметр GMC формата : Без точки перехода
Параметр матрицы формата : Default (MPEG)
Режим смешивания : Сжатый битовый поток
Идентификатор кодека : XVID
Идентификатор кодека/Подсказка : XviD
Продолжительность : 1 ч. 24 м.
Битрейт : 2191 Кбит/сек
Ширина : 688 пикселей
Высота : 400 пикселей
Соотношение сторон : 1,720
Частота кадров : 25,000 кадров/сек
Цветовое пространство : YUV
Субдискретизация насыщенности : 4:2:0
Битовая глубина : 8 бит
Тип развёртки : Прогрессивная
Метод сжатия : С потерями
Бит/(Пиксели*Кадры) : 0.318
Размер потока : 1,29 Гбайт (87%)
Библиотека кодирования : XviD 1.2.0.dev47 (UTC 2006-11-01)

Аудио #1
Идентификатор : 1
Формат : MPEG Audio
Версия формата : Version 1
Профиль формата : Layer 3
Идентификатор кодека : 55
Идентификатор кодека/Подсказка : MP3
Продолжительность : 1 ч. 24 м.
Вид битрейта : Постоянный
Битрейт : 192 Кбит/сек
Каналы : 2 канала
Частота : 48,0 КГц
Метод сжатия : С потерями
Размер потока : 115 Мбайт (8%)
Выравнивание : Соединение по промежуткам
Продолжительность промежутка : 40 мс. (1,00 видеокадр)
Время предзагрузки промежутка : 504 мс.

Аудио #2
Идентификатор : 2
Формат : MPEG Audio
Версия формата : Version 1
Профиль формата : Layer 3
Режим : Joint stereo
Идентификатор кодека : 55
Идентификатор кодека/Подсказка : MP3
Продолжительность : 1 ч. 24 м.
Вид битрейта : Постоянный
Битрейт : 128 Кбит/сек
Каналы : 2 канала
Частота : 48,0 КГц
Метод сжатия : С потерями
Размер потока : 76,9 Мбайт (5%)
Выравнивание : Соединение по промежуткам
Продолжительность промежутка : 40 мс. (1,00 видеокадр)
Время предзагрузки промежутка : 504 мс.
Библиотека кодирования : LAME3.97b
Настройки программы : -m j -V 4 -q 2 -lowpass 17 -b 128


_________________
Проголосуй за трекер Открытый торрент трекер - RUS-MEDIA.ORG




реклама партнёра


Вернуться к началу
 Профиль Отправить личное сообщение  
 
   Похожие торренты   Автор   Торрент   Размер 
В этой теме нет новых непрочитанных сообщений. Бременские разбойники (Мультфильм, комедия, приключения, 2016) TS

marya111

416 | 79

1.37 ГБ

В этой теме нет новых непрочитанных сообщений. Бременские разбойники [Мультфильм, комедия, приключения, музыка, 2016] WEB-DL 1080p [iTunes]

salma3

1775 | 129

2.77 ГБ

В этой теме нет новых непрочитанных сообщений. Бременские разбойники [Мультфильм, комедия, приключения, музыка, 2016] WEB-DLRip [iTunes]

salma3

6676 | 1161

1.37 ГБ

В этой теме нет новых непрочитанных сообщений. Бременские разбойники [Мультфильм, комедия, приключения, музыка, 2016] WEB-DL 720p [iTunes]

salma3

691 | 52

2.21 ГБ

В этой теме нет новых непрочитанных сообщений. Бременские разбойники (Мультфильм, комедия, приключения, музыка, 2016) WEB-DLRip от GeneralFilm | iTunes

marya111

249 | 10

745.03 МБ

В этой теме нет новых непрочитанных сообщений. Бременские разбойники (Мультфильм, комедия, приключения, музыка, 2016) WEB-DLRip от Generalfilm | КПК | iTunes

marya111

92 | 5

372.5 МБ

В этой теме нет новых непрочитанных сообщений. Фантастическая четверка / Fantastic Four [фантастика, боевик, приключения, 2015] BDRip-HEVC 1080p, Dub

salma3

16 | 4

3.93 ГБ


Начать новую тему Ответить на тему  [ 1 сообщение ] 




Для Мосгорсуда, Роскомнадзора и рекламодателей:: mosgorsud-torrent[собачка]yandex.ru