Торрент файл
скачать торрент магнет ссылка Добавлен: 14 фев 2014, 23:57
Размер: 1.46 ГБ
Сидеров: 13
Личеров: 3
Статус: (salma3)
Автор

СообщениеДобавлено: 14 фев 2014, 23:57 

В сети
Супермодератор
Аватара пользователя
Дата регистрации:
15 фев 2012, 16:44
Возраст: 27
Спасибо: 5121 / 2089
Сообщения: 17304
Разрушение Трои и приключения Одиссея / Destruction of Troy and Adventures of Odysseus

Год выпуска: 1998
Жанр: мультфильм, приключения, исторический
Режиссер: Валентас Ашкинс

В ролях: -

Описание: Король Итаки, Одиссей и другие правители древней Греции отправились в поход на Троянскую Империю, чтобы освободить прекрасную Елену, которая была украдена Парисом, сыном Троянского короля. Война длилась десять лет, но в итоге греки победили троянцев, использовав идею Одиссея с «Троянским конем». Греки полностью разрушили Трою. После победы Одиссей и его народ сели в свои корабли и поплыли в Итаку, где его ждали жена Пенелопа и сын Тилимахос. Но согласно греческой легенде, боги обозлились на Одиссея и его род и сделали их возвращение домой чрезвычайно трудным и полным опасностей. Встреча с Сиренами, битва с Циклопом и еще множество самых вероятных событий и приключений.



Страна: США
Продолжительность: 01:43:35
Перевод: Профессиональный (полное дублирование)

Файл
Качество: DVDRip
Формат файла: AVI
Видео кодек: XviD
Аудио кодек: AC3
Видео: 720x544, (4:3), 25fps, MPEG-4 Visual (DivX 5.2.1), ~1817 Кбит/сек., 0.186 bit/pixel
Аудио: Русский 48,0КГц, AC-3, 2ch, ~192 Кбит/сек

Общее
Полное имя : H:\видео\мультики\Разрушение Трои и приключения Одиссея -1998.avi
Формат : AVI
Формат/Информация : Audio Video Interleave
Размер файла : 1,46 Гбайт
Продолжительность : 1 ч. 43 м.
Общий поток : 2015 Кбит/сек
Программа кодирования : VirtualDubMod 1.5.4.1 (build 2178/release)
Библиотека кодирования : VirtualDubMod build 2178/release

Видео
Идентификатор : 0
Формат : MPEG-4 Visual
Параметр BVOP формата : Нет
Параметр QPel формата : Нет
Параметр GMC формата : Без точки перехода
Параметр матрицы формата : Default (H.263)
Идентификатор кодека : DX50
Идентификатор кодека/Подсказка : DivX 5
Продолжительность : 1 ч. 43 м.
Битрейт : 1817 Кбит/сек
Ширина : 720 пикселей
Высота : 544 пикселя
Соотношение сторон : 4:3
Частота кадров : 25,000 кадров/сек
Цветовое пространство : YUV
Субдискретизация насыщенности : 4:2:0
Битовая глубина : 8 бит
Тип развёртки : Прогрессивная
Метод сжатия : С потерями
Бит/(Пиксели*Кадры) : 0.186
Размер потока : 1,31 Гбайт (90%)
Библиотека кодирования : DivX 5.2.1 (DrDivX 106) (UTC 2004-09-0

Аудио
Идентификатор : 1
Формат : AC-3
Формат/Информация : Audio Coding 3
Расширение режима : CM (complete main)
Параметр Endianness формата : Big
Идентификатор кодека : 2000
Продолжительность : 1 ч. 43 м.
Вид битрейта : Постоянный
Битрейт : 192 Кбит/сек
Каналы : 2 канала
Расположение каналов : Front: L R
Частота : 48,0 КГц
Битовая глубина : 16 бит
Метод сжатия : С потерями
Размер потока : 142 Мбайт (10%)
Выравнивание : Разделение по промежуткам
Продолжительность промежутка : 96 мс. (2,40 видеокадра)
Время предзагрузки промежутка : 96 мс.







Релиз группа: Автор рипа:


_________________



реклама партнёра


Вернуться к началу
 Профиль Отправить личное сообщение  
 
   Похожие торренты   Автор   Торрент   Размер 
В этой теме нет новых непрочитанных сообщений. Разрушение Лас-Вегаса / Blast Vegas / Destruction: Las Vegas [боевик, триллер, приключения, 2013] HDTVRip, Mvo [СТС]

salma3

483 | 30

1.45 ГБ

В этой теме нет новых непрочитанных сообщений. Маленький Немо: Приключения в стране снов / Little Nemo: Adventures in Slumberland [Мультфильм, приключения, 1989] DVDRip, Avo

salma3

29 | 4

1.38 ГБ

В этой теме нет новых непрочитанных сообщений. Кодекс пирата: приключения Микки Мэтсона / Pirate's Code: The Adventures of Mickey Matson (Харольд Кронк) [Cемейный, приключения, 2014] DVDRip, dvo

Dracon

70 | 2

1.37 ГБ

В этой теме нет новых непрочитанных сообщений. Вдали от дома: Приключения жёлтого пса / Far from Home: The Adventures of Yellow Do [приключения, семейный, 1995] HDTVRip, Mvo

salma3

116 | 12

1.37 ГБ

В этой теме нет новых непрочитанных сообщений. Бигглз: Приключения во времени / Biggles: Adventures in Time [Фантастика, приключения, 1986] BDRip 1080p, Mvo+Avo

salma3

111 | 33

7.96 ГБ

В этой теме нет новых непрочитанных сообщений. Приключения кота в сапогах / The Adventures of Puss in Boots [S03] [Мультсериал, комедия, приключения, семейный, 2016] WEBRip, Mvo [NewStudio]

salma3

105 | 32

3.02 ГБ

В этой теме нет новых непрочитанных сообщений. Тарзан: Героические приключения / Tarzan: The Epic Adventures / / 1 сезон 1-22 серии из 22 [Приключения, фэнтези, экранизация, 1996-2000] WEB-DLRip, Mvo

salma3

96 | 46

12.08 ГБ


Начать новую тему Ответить на тему  [ 1 сообщение ] 




Для Мосгорсуда, Роскомнадзора и рекламодателей:: mosgorsud-torrent[собачка]yandex.ru