Торрент файл
скачать торрент магнет ссылка Добавлен: 05 фев 2014, 16:52
Размер: 3.93 ГБ
Сидеров: 143
Личеров: 8
Статус: (Dracon)
Автор

СообщениеДобавлено: 05 фев 2014, 16:52 

Не в сети
Зам. Админа
Аватара пользователя
Дата регистрации:
02 дек 2010, 12:39
Спасибо: 12461 / 214
Сообщения: 27968
Год выпуска: 2013
Жанр: Мультфильм, фантастика, комедия, семейный
Выпущено: США, Columbia Pictures, Sony Pictures Animation, Sony Pictures Imageworks
Режиссер: Коуди Камерон, Крис Пирн
В ролях: Энди Сэмберг, Анна Фэрис, Нил Патрик Харрис, Терри Крюс, Джеймс Каан, Кристен Шол, Бенджамин Брэтт, Билл Хэйдер, Уилл Форте

О фильме: Все жители острова Поплавок покинули родной дом после событий предыдущего мультфильма. Главный герой Флинт Локвуд теперь работает в компании The Live Corp на своего кумира Честера. Но ему придется оставить свой пост когда он узнает, что его печально-известная машина все ещё работает и производит на свет опасных гибридов. Флинту предстоит ещё раз спасти мир и не дать коварной машине распространить громадную еду по всему миру.

Качество: BDRip (720p)
Видео: MPEG-4 AVC, 3778 Кбит/с, 1280x536
Аудио: Русский (AC3, 6 ch, 640 Кбит/с), английский (DTS, 6 ch, 1509 Кбит/с)
Размер: 3.92 ГБ
Продолжительность: 01:34:49
Перевод: Дублированный [лицензия]
Субтитры: Русские, английские

Общее
Уникальный идентификатор : 212946029516619523151461514762163975694 (0xA033E9D9B92472EBA6A67D85D93DF60E)
Полное имя : C:Oblachno.2.Mest.GMO.2013.D.BDRip.720p.mkv
Формат : Matroska
Версия формата : Version 2
Размер файла : 3,93 Гбайт
Продолжительность : 1 ч. 34 м.
Общий поток : 5930 Кбит/сек
Дата кодирования : UTC 2014-02-05 08:18:21
Программа кодирования : mkvmerge v6.7.0 ('Back to the Ground') 32bit built on Jan 8 2014 15:03:17
Библиотека кодирования : libebml v1.3.0 + libmatroska v1.4.1
Видео
Идентификатор : 1
Формат : AVC
Формат/Информация : Advanced Video Codec
Профиль формата : High@L4.1
Параметр CABAC формата : Да
Параметр ReFrames формата : 10 кадров
Идентификатор кодека : V_MPEG4/ISO/AVC
Продолжительность : 1 ч. 34 м.
Битрейт : 3778 Кбит/сек
Ширина : 1280 пикселей
Высота : 534 пикселя
Соотношение сторон : 2,40:1
Режим частоты кадров : Постоянный
Частота кадров : 23,976 кадра/сек
Цветовое пространство : YUV
Субдискретизация насыщенности : 4:2:0
Битовая глубина : 8 бит
Тип развёртки : Прогрессивная
Бит/(Пиксели*Кадры) : 0.231
Размер потока : 2,43 Гбайт (62%)
Заголовок : Cloudy.with.a.Chance.of.Meatballs.2.2013
Библиотека кодирования : x264 core 138 r2356 a1d3d17
Настройки программы : cabac=1 / ref=10 / deblock=1:-3:-3 / analyse=0x3:0x113 / me=umh / subme=10 / psy=1 / psy_rd=1.00:0.05 / mixed_ref=1 / me_range=32 / chroma_me=1 / trellis=2 / 8x8dct=1 / cqm=0 / deadzone=21,11 / fast_pskip=0 / chroma_qp_offset=-2 / threads=18 / lookahead_threads=1 / sliced_threads=0 / nr=0 / decimate=1 / interlaced=0 / bluray_compat=0 / constrained_intra=0 / bframes=4 / b_pyramid=2 / b_adapt=2 / b_bias=0 / direct=3 / weightb=1 / open_gop=0 / weightp=2 / keyint=250 / keyint_min=23 / scenecut=40 / intra_refresh=0 / rc=2pass / mbtree=0 / bitrate=3778 / ratetol=1.0 / qcomp=0.70 / qpmin=0 / qpmax=69 / qpstep=4 / cplxblur=20.0 / qblur=0.5 / ip_ratio=1.40 / pb_ratio=1.30 / aq=2:1.00
Язык : English
Default : Да
Forced : Нет
Аудио #1
Идентификатор : 2
Формат : AC-3
Формат/Информация : Audio Coding 3
Расширение режима : CM (complete main)
Параметр Endianness формата : Big
Идентификатор кодека : A_AC3
Продолжительность : 1 ч. 34 м.
Вид битрейта : Постоянный
Битрейт : 640 Кбит/сек
Каналы : 6 каналов
Расположение каналов : Front: L C R, Side: L R, LFE
Частота : 48,0 КГц
Битовая глубина : 16 бит
Метод сжатия : С потерями
Размер потока : 434 Мбайт (11%)
Язык : Russian
Default : Да
Forced : Нет
Аудио #2
Идентификатор : 3
Формат : DTS
Формат/Информация : Digital Theater Systems
Режим : 16
Параметр Endianness формата : Big
Идентификатор кодека : A_DTS
Продолжительность : 1 ч. 34 м.
Вид битрейта : Постоянный
Битрейт : 1509 Кбит/сек
Каналы : 6 каналов
Расположение каналов : Front: L C R, Side: L R, LFE
Частота : 48,0 КГц
Битовая глубина : 24 бит
Метод сжатия : С потерями
Размер потока : 1024 Мбайт (25%)
Заголовок : DTS-CORE 1536K ENG
Язык : English
Default : Нет
Forced : Нет
Текст #1
Идентификатор : 4
Формат : UTF-8
Идентификатор кодека : S_TEXT/UTF8
Идентификатор кодека/Информация : UTF-8 Plain Text
Язык : Russian
Default : Нет
Forced : Нет
Текст #2
Идентификатор : 5
Формат : UTF-8
Идентификатор кодека : S_TEXT/UTF8
Идентификатор кодека/Информация : UTF-8 Plain Text
Язык : English
Default : Нет
Forced : Нет
Меню
00:00:00.000 : en:00:00:00.000
00:07:12.015 : en:00:07:12.015
00:12:51.521 : en:00:12:51.521
00:18:50.421 : en:00:18:50.421
00:25:58.390 : en:00:25:58.390
00:31:57.082 : en:00:31:57.082
00:36:53.253 : en:00:36:53.253
00:39:28.908 : en:00:39:28.908
00:41:07.840 : en:00:41:07.840
00:45:28.017 : en:00:45:28.017
00:49:48.694 : en:00:49:48.694
00:54:41.403 : en:00:54:41.403
01:00:39.886 : en:01:00:39.886
01:06:47.921 : en:01:06:47.921
01:12:54.954 : en:01:12:54.954
01:21:25.589 : en:01:21:25.589







реклама партнёра


Вернуться к началу
 Профиль  
 
   Похожие торренты   Автор   Торрент   Размер 
В этой теме нет новых непрочитанных сообщений. Облачно, возможны осадки: Месть ГМО / Cloudy 2: Revenge of the Leftovers [Мультфильм, Фантастика, Комедия, Семейный, 2013] BDRip 1080p, Dub+Sub [Лицензия]

Dracon

242 | 13

8.33 ГБ

В этой теме нет новых непрочитанных сообщений. Облачно, возможны осадки: Месть ГМО / Cloudy 2: Revenge of the Leftovers [Мультфильм, Фантастика, Комедия, Семейный, 2013] HDRip, Dub [Лицензия]

Dracon

2621 | 60

1.46 ГБ

В этой теме нет новых непрочитанных сообщений. Облачно... 2: Месть ГМО / Cloudy with a Chance of Meatballs 2 [Мультфильм, фантастика, комедия, семейный, 2013] BDRip 1080p, dub [Лицензия | 3D-Video]

Dracon

61 | 6

7.01 ГБ

В этой теме нет новых непрочитанных сообщений. Самолеты / Planes [Мультфильм, комедия, семейный, полнометражный, 2013] BDRip 720p, Dub+Sub [Лицензия]

Dracon

150 | 9

3.91 ГБ

В этой теме нет новых непрочитанных сообщений. Дом / Home (Тим Джонсон) [мультфильм, фантастика, фэнтези, комедия, приключения, семейный, 2015] BDRip 720p, Dub+Sub [лицензия]

Dracon

0 | 0

4.8 ГБ

В этой теме нет новых непрочитанных сообщений. Холодное сердце / Frozen [Мультфильм, фэнтези, комедия, приключения, семейный, 2013] BDRip 720p, Dub+Sub [Лицензия]

Dracon

1219 | 26

4.37 ГБ

В этой теме нет новых непрочитанных сообщений. Город героев / Big Hero 6 (Дон Холл, Крис Уильямс) [мультфильм, фантастика, комедия, семейный, боевик, 2014] BDRip 720p, Dub+Sub [Лицензия] Avo

Dracon

2 | 5

7.93 ГБ


Начать новую тему Ответить на тему  [ 1 сообщение ] 




Для Мосгорсуда, Роскомнадзора и рекламодателей:: mosgorsud-torrent[собачка]yandex.ru