Торрент файл
скачать торрент магнет ссылка Добавлен: 05 фев 2014, 10:12
Размер: 7.29 ГБ
Сидеров: 4
Личеров: 3
Статус: (Dracon)
Автор

СообщениеДобавлено: 05 фев 2014, 10:12 

Не в сети
Зам. Админа
Аватара пользователя
Дата регистрации:
02 дек 2010, 12:39
Спасибо: 12623 / 214
Сообщения: 28012
Год выхода: 2013
Жанр: Отечественные
Режиссер: Владимир Торопчин
В ролях: Никита Ефремов, Татьяна Бунина, Иван Охлобыстин, Михаил Боярский, Ирина Рахманова, Александр Боярский

О фильме:
В Тридевятом царстве, где живут наши герои — тишь, да благодать. Иван женился на Василисе, и «жили они долго и счастливо», да не тут-то было. Иван целыми днями пропадает с Волком на службе — укрепляет рубежи и оборонную мощь, мечтает перевести стрелки часов на семь часов назад, чтобы меньше спать, и больше работать. А Василисе — скучно, как всем девушкам, ей хочется романтики, ну, такой, как в сказках. И тогда она решает организовать свое похищение… Однако, когда такое бывало, что в сказках все получалось так, как задумывалось?

Качество: BD-Remux 1080p
Видео: MPEG-4 AVC, 12.6 Mb/s, 1920x1080 , 24.000 fps
Аудио: DTS, 1509 kb/s (6 ch)
Продолжительность: 01:12:37
Перевод: Не требуется
General
Unique ID                                : 250759044021528116302202348789813964694 (0xBCA66F6758CB426DB1217C636A0F6F96)
Complete name                            : D:Ivan.Tsarevich.i.Seryy.Volk.2.2013.O.BDRemux.1080p.mkv
Format                                   : Matroska
Format version                           : Version 4 / Version 2
File size                                : 7.29 GiB
Duration                                 : 1h 12mn
Overall bit rate mode                    : Variable
Overall bit rate                         : 14.4 Mbps
Encoded date                             : UTC 2014-02-04 12:26:28
Writing application                      : mkvmerge v6.5.0 ('Isn't she lovely') built on Oct 20 2013 12:50:05
Writing library                          : libebml v1.3.0 + libmatroska v1.4.1

Video
ID                                       : 1
Format                                   : AVC
Format/Info                              : Advanced Video Codec
Format profile                           : High@L4.1
Format settings, CABAC                   : Yes
Format settings, ReFrames                : 4 frames
Format settings, GOP                     : M=3, N=14
Codec ID                                 : V_MPEG4/ISO/AVC
Duration                                 : 1h 12mn
Bit rate mode                            : Variable
Bit rate                                 : 12.6 Mbps
Maximum bit rate                         : 33.0 Mbps
Width                                    : 1 920 pixels
Height                                   : 1 080 pixels
Display aspect ratio                     : 16:9
Frame rate mode                          : Constant
Frame rate                               : 24.000 fps
Standard                                 : NTSC
Color space                              : YUV
Chroma subsampling                       : 4:2:0
Bit depth                                : 8 bits
Scan type                                : Progressive
Bits/(Pixel*Frame)                       : 0.253
Stream size                              : 6.38 GiB (88%)
Default                                  : Yes
Forced                                   : No
Color primaries                          : BT.709
Transfer characteristics                 : BT.709
Matrix coefficients                      : BT.709

Audio
ID                                       : 2
Format                                   : DTS
Format/Info                              : Digital Theater Systems
Mode                                     : 16
Format settings, Endianness              : Big
Codec ID                                 : A_DTS
Duration                                 : 1h 12mn
Bit rate mode                            : Constant
Bit rate                                 : 1 509 Kbps
Channel count                            : 6 channels
Channel positions                        : Front: L C R, Side: L R, LFE
Sampling rate                            : 48.0 KHz
Bit depth                                : 16 bits
Compression mode                         : Lossy
Stream size                              : 784 MiB (10%)
Default                                  : Yes
Forced                                   : No











реклама партнёра


Вернуться к началу
 Профиль  
 
   Похожие торренты   Автор   Торрент   Размер 
В этой теме нет новых непрочитанных сообщений. Иван Царевич и Серый Волк 3 [Мультфильм, приключения, семейный, 2015] Blu-Ray [Лицензия]

salma3

158 | 44

14.22 ГБ

В этой теме нет новых непрочитанных сообщений. Иван Царевич и Серый Волк 3 [Мультфильм, приключения, семейный, 2015] WEB-DL 1080p

Dracon

3547 | 134

2.91 ГБ

В этой теме нет новых непрочитанных сообщений. Иван Царевич и Серый Волк 3 [Мультфильм, приключения, семейный, 2015] WEB-DLRip

Dracon

7595 | 563

1.37 ГБ

В этой теме нет новых непрочитанных сообщений. Иван Царевич и Серый Волк 3 [мультфильм, приключения, семейный, 2015] BDRip 720p

salma3

75 | 5

4.19 ГБ

В этой теме нет новых непрочитанных сообщений. Дом / Home (Тим Джонсон) [мультфильм, фантастика, фэнтези, комедия, приключения, семейный, 2015] Blu-Ray Remux 1080p, Dub+Sub [Лицензия]

Dracon

149 | 41

23.3 ГБ

В этой теме нет новых непрочитанных сообщений. Дом / Home (Тим Джонсон) [мультфильм, фантастика, фэнтези, комедия, приключения, семейный, 2015] Blu-Ray Remux 1080p, Dub+Sub [3D-Video | Лицензия]

Dracon

74 | 20

32.12 ГБ

В этой теме нет новых непрочитанных сообщений. Феи: Легенда о чудовище / Legend of the NeverBeast (Стив Лотер) [мультфильм, фэнтези, приключения, семейный, 2014] Blu-Ray Remux 1080p, Dub+Sub [Лицензия]

Dracon

21 | 3

20.48 ГБ


Начать новую тему Ответить на тему  [ 1 сообщение ] 




Для Мосгорсуда, Роскомнадзора и рекламодателей:: mosgorsud-torrent[собачка]yandex.ru