Торрент файл
скачать торрент магнет ссылка Добавлен: 25 дек 2013, 16:31
Размер: 652.47 МБ
Сидеров: 149
Личеров: 8
Автор

СообщениеДобавлено: 25 дек 2013, 16:31 

Не в сети
Супермодератор
Аватара пользователя
Дата регистрации:
15 фев 2012, 16:44
Возраст: 28
Спасибо: 6565 / 2130
Сообщения: 43739
София Прекрасная: История принцессы / Sofia the First: Once Upon a Princess

Год выпуска: 2012
Жанр: мюзикл, фэнтези, семейный
Режиссер: Джэми Митчелл

В ролях: Эриэл Винтер, Сара Рамирез, Джим Каммингс, Уэйн Брэди, Дарси Роуз Барнс, Зак Каллисон, Джесс Харнелл, Дженнифер Хейл, Трэвис Виллингхем

Описание: В одном далеком-предалеком королевстве рука об руку правят волшебство и веселье! Знакомьтесь — София Прекрасная, очаровательная маленькая принцесса, которой предстоит впервые выйти в свет.
После того, как мама Софии выходит замуж за короля, девочка становится принцессой. И вот уже маленькая София мчится в Академию по подготовке королевских особ, где строгие преподаватели научат ее всему, что нужно знать принцессе. Но сможет ли София научиться колдовать и подружится ли она со своей новой сводной сестрой? Ей помогут доброта, говорящие животные и советы особенной гостьи Академии — знаменитой Золушки.



Страна: США, Disney Television Animation, Walt Disney Productions
Продолжительность: 00:45:38
Перевод: Профессиональный (полное дублирование)

Файл
Качество: DVDRip
Формат файла: AVI
Видео кодек: XviD
Аудио кодек: AC3
Видео: 720x400 (16:9), 25 fps, XviD MPEG-4 ~1797 kbps avg, 0.250 bit/pixel
Аудио: 48 kHz, АС 3, 2 ch, ~256.00 kbps avg


General
Complete name : D:\Sofia Тhe First.2012.Generalfilm.avi
Format : AVI
Format/Info : Audio Video Interleave
File size : 652 MiB
Duration : 45mn 38s
Overall bit rate : 1 998 Kbps
Writing application : VirtualDubMod 1.5.10.3 | http://www.virtualdub-fr.org || (build 2550/release)
Writing library : VirtualDubMod build 2550/release

Video
ID : 0
Format : MPEG-4 Visual
Format profile : Advanced Simple@L5
Format settings, BVOP : Yes
Format settings, QPel : No
Format settings, GMC : No warppoints
Format settings, Matrix : Default (H.263)
Codec ID : XVID
Codec ID/Hint : XviD
Duration : 45mn 38s
Bit rate : 1 797 Kbps
Width : 720 pixels
Height : 400 pixels
Display aspect ratio : 16:9
Frame rate : 25.000 fps
Color space : YUV
Chroma subsampling : 4:2:0
Bit depth : 8 bits
Scan type : Progressive
Bits/(Pixel*Frame) : 0.250
Stream size : 587 MiB (90%)
Writing library : XviD 1.2.1 (UTC 2008-12-04)

Audio
ID : 1
Format : AC-3
Format/Info : Audio Coding 3
Mode extension : CM (complete main)
Codec ID : 2000
Duration : 45mn 38s
Bit rate mode : Constant
Bit rate : 192 Kbps
Channel(s) : 2 channels
Channel positions : Front: L R
Sampling rate : 48.0 KHz
Stream size : 62.7 MiB (10%)
Alignment : Split accross interleaves
Interleave, duration : 40 ms (1.00 video frame)
Interleave, preload duration : 500 ms











Релиз от:


_________________
Проголосуй за трекер Открытый торрент трекер - RUS-MEDIA.ORG

Проголосуй Открытый торрент трекер - RUS-MEDIA.ORG



реклама партнёра


Вернуться к началу
 Профиль Отправить личное сообщение  
 
   Похожие торренты   Автор   Торрент   Размер 
В этой теме нет новых непрочитанных сообщений. София Прекрасная / Sofia the First [S03] [мультфильм, фэнтези, 2015] WEBDLRip, Dub

salma3

38 | 14

8.52 ГБ

В этой теме нет новых непрочитанных сообщений. София (София Палеолог) / Sofia (Серии 1-8 из 8) (Алексей Андрианов) [2016, Мелодрама, исторический , HDTVRipi 1080p] [DD5.1]

Враг Нароода

6 | 9

24.28 ГБ

В этой теме нет новых непрочитанных сообщений. Код доступа «София» / Sofia / Assassin's Bullet [боевик, триллер, драма, 2012] BDRip 1080p, Mvo

salma3

34 | 5

8.93 ГБ

В этой теме нет новых непрочитанных сообщений. Hillary Scott & Jenna Haze - Дневники принцессы Анала / Anal Princess Diaries (2005) DVDRip-AVC

salma3

9 | 1

443.62 МБ

В этой теме нет новых непрочитанных сообщений. Почти розовая история / Takmer ruzovy pribeh [Мюзикл, фэнтези, 1990] DVDRip, Avo

salma3

9 | 8

1.37 ГБ

В этой теме нет новых непрочитанных сообщений. Джек в Стране Чудес / Jack and the Beanstalk [мультфильм, мюзикл, фэнтези, приключения, семейный, DVDRip, Mvo

salma3

26 | 4

1.45 ГБ

В этой теме нет новых непрочитанных сообщений. София / София Палеолог [01-06 из 8] ( Мелодрама, исторический, 2016) HDTVRip-AVC от ExKinoRay

marya111

435 | 288

4.37 ГБ


Начать новую тему Ответить на тему  [ 1 сообщение ] 




Для Мосгорсуда, Роскомнадзора и рекламодателей:: mosgorsud-torrent[собачка]yandex.ru