Торрент файл
скачать торрент магнет ссылка Добавлен: 15 дек 2013, 11:42
Размер: 6.04 ГБ
Сидеров: 16
Личеров: 3
Статус: (Dracon)
Автор

СообщениеДобавлено: 15 дек 2013, 11:42 

Не в сети
Зам. Админа
Аватара пользователя
Дата регистрации:
02 дек 2010, 12:39
Спасибо: 12623 / 214
Сообщения: 28012
Год выпуска: 2013
Жанр: Мультфильм, мюзикл, комедия, семейный, полнометражный
Выпущено: Перу, Аргентина, Red Post Studio, Instituto Nacional de Cine y Artes Audiovisuales (INCAA)
Режиссер: Давид Бисбано
В ролях: Эрнан Браво, Наталия Росминати, Рикардо Эланис, Энрике Порсейана, Серджо Бермехо, Освальдо Салас, Гонсало Уртисбереа, Марсело Чиринос, Хосе Луис Пертикарини, Мария Елена Молина

О фильме: Давным-давно, в густых и широких лесах стояло прекрасное королевство Роденсия — место, где обитали удивительные создания и могущественные волшебники. Приключение, которое произойдёт здесь, расскажет нам о любви между неуклюжим учеником мага маленьким мышонком Эдамом и красивой и уверенной мышкой Бри, которым придётся преодолеть много опасных препятствий, для того чтобы получить силу зубной феи и победить отряд крыс под командованием злого Ротекса, который вторгся в мирное мышиное царство. В таинственной глубине леса магия света и тьмы, любви и обиды столкнутся, а Эдам и Ротекс будут сражаться, и только один выйдет победителем.

Качество: BDRip (1080p)
Видео: MPEG-4 AVC, 7700 Кбит/с, 1920x848
Аудио: Русский (AC3, 6 ch, 640 Кбит/с), (DTS, 6 ch, 1510 Кбит/с)
Размер: 6.04 ГБ
Продолжительность: 01:27:42
Перевод: Дублированный [лицензия]

Общее
Уникальный идентификатор : 220445735871608407318626351137691067492 (0xA5D84DEC0753FD1099D18110E154E464)
Полное имя : D:Mishonok.2013.1080p.CMEGRoup.mkv
Формат : Matroska
Версия формата : Version 2
Размер файла : 6,04 Гбайт
Продолжительность : 1 ч. 27 м.
Общий поток : 9853 Кбит/сек
Название фильма : CMEGRoup
Дата кодирования : UTC 2013-12-15 07:18:02
Программа кодирования : mkvmerge v6.3.0 ('You can't stop me!') built on Jun 28 2013 20:09:41
Библиотека кодирования : libebml v1.3.0 + libmatroska v1.4.0
Видео
Идентификатор : 1
Формат : AVC
Формат/Информация : Advanced Video Codec
Профиль формата : High@L4.1
Параметр CABAC формата : Да
Параметр ReFrames формата : 4 кадра
Идентификатор кодека : V_MPEG4/ISO/AVC
Продолжительность : 1 ч. 27 м.
Битрейт : 7700 Кбит/сек
Ширина : 1920 пикселей
Высота : 848 пикселей
Соотношение сторон : 2,25:1
Режим частоты кадров : Постоянный
Частота кадров : 23,976 кадра/сек
Цветовое пространство : YUV
Субдискретизация насыщенности : 4:2:0
Битовая глубина : 8 бит
Тип развёртки : Прогрессивная
Бит/(Пиксели*Кадры) : 0.197
Размер потока : 4,60 Гбайт (76%)
Библиотека кодирования : x264 core 138 r2358 9e941d1
Настройки программы : cabac=1 / ref=4 / deblock=1:-3:-3 / analyse=0x3:0x113 / me=umh / subme=11 / psy=1 / psy_rd=1.00:0.00 / mixed_ref=1 / me_range=32 / chroma_me=1 / trellis=2 / 8x8dct=1 / cqm=0 / deadzone=21,11 / fast_pskip=1 / chroma_qp_offset=-2 / threads=12 / lookahead_threads=1 / sliced_threads=0 / nr=0 / decimate=1 / interlaced=0 / bluray_compat=0 / constrained_intra=0 / bframes=5 / b_pyramid=2 / b_adapt=1 / b_bias=0 / direct=2 / weightb=1 / open_gop=0 / weightp=2 / keyint=240 / keyint_min=23 / scenecut=40 / intra_refresh=0 / rc_lookahead=40 / rc=2pass / mbtree=1 / bitrate=7700 / ratetol=1.0 / qcomp=0.60 / qpmin=10 / qpmax=51 / qpstep=4 / cplxblur=20.0 / qblur=0.5 / vbv_maxrate=62500 / vbv_bufsize=78125 / nal_hrd=none / ip_ratio=1.40 / aq=1:1.00 / zones=121821,126162,q=40
Язык : Russian
Default : Да
Forced : Нет
Аудио #1
Идентификатор : 2
Формат : DTS
Формат/Информация : Digital Theater Systems
Режим : 16
Параметр Endianness формата : Big
Идентификатор кодека : A_DTS
Продолжительность : 1 ч. 27 м.
Вид битрейта : Постоянный
Битрейт : 1509 Кбит/сек
Каналы : 6 каналов
Расположение каналов : Front: L C R, Side: L R, LFE
Частота : 48,0 КГц
Битовая глубина : 16 бит
Метод сжатия : С потерями
Размер потока : 947 Мбайт (15%)
Язык : Russian
Default : Да
Forced : Нет
Аудио #2
Идентификатор : 3
Формат : AC-3
Формат/Информация : Audio Coding 3
Расширение режима : CM (complete main)
Параметр Endianness формата : Big
Идентификатор кодека : A_AC3
Продолжительность : 1 ч. 27 м.
Вид битрейта : Постоянный
Битрейт : 640 Кбит/сек
Каналы : 6 каналов
Расположение каналов : Front: L C R, Side: L R, LFE
Частота : 48,0 КГц
Битовая глубина : 16 бит
Метод сжатия : С потерями
Размер потока : 401 Мбайт (6%)
Язык : Russian
Default : Нет
Forced : Нет





реклама партнёра


Вернуться к началу
 Профиль  
 
   Похожие торренты   Автор   Торрент   Размер 
В этой теме нет новых непрочитанных сообщений. Аисты / Storks [мультфильм, фэнтези, комедия, приключения, семейный, 2016] BDRip 1080p, Dub [Лицензия]

salma3

59 | 14

8.86 ГБ

В этой теме нет новых непрочитанных сообщений. Дом / Home (Тим Джонсон) [мультфильм, фантастика, фэнтези, комедия, приключения, семейный, 2015] BDRip 1080p, Dub+Sub [лицензия]

Dracon

2 | 1

7.1 ГБ

В этой теме нет новых непрочитанных сообщений. В поисках Дори / Finding Dory (мультфильм, комедия, приключения, семейный, 2016) BDRip 1080p | Лицензия

marya111

206 | 12

12.46 ГБ

В этой теме нет новых непрочитанных сообщений. Дом / Home (Тим Джонсон) [мультфильм, фантастика, фэнтези, комедия, приключения, семейный, 2015] BDRip 1080p, Dub+Sub [3D-Video | Лицензия]

Dracon

1019 | 133

8.84 ГБ

В этой теме нет новых непрочитанных сообщений. Дом / Home (Тим Джонсон) [мультфильм, фантастика, фэнтези, комедия, приключения, семейный, 2015] BDRip 1080p, Dub+Sub [3D-Video | Лицензия]

Dracon

355 | 14

9.53 ГБ

В этой теме нет новых непрочитанных сообщений. В поисках Дори / Finding Dory [мультфильм, комедия, приключения, семейный, 2016] BDRip 1080p, Dub [3D-Video] [Лицензия]

salma3

153 | 84

10.39 ГБ

В этой теме нет новых непрочитанных сообщений. Волшебный футбол / Metegol [мультфильм, приключения, семейный, спорт, 2013] BDRip 1080p, Mvo+Sub [AlexFilm]

Dracon

29 | 5

10.82 ГБ


Начать новую тему Ответить на тему  [ 1 сообщение ] 




Для Мосгорсуда, Роскомнадзора и рекламодателей:: mosgorsud-torrent[собачка]yandex.ru