Торрент файл
скачать торрент магнет ссылка Добавлен: 15 дек 2013, 10:16
Размер: 6.96 ГБ
Сидеров: 34
Личеров: 5
Статус: (Dracon)
Автор

СообщениеДобавлено: 15 дек 2013, 10:16 

Не в сети
Зам. Админа
Аватара пользователя
Дата регистрации:
02 дек 2010, 12:39
Спасибо: 12461 / 214
Сообщения: 27968
Год выпуска: 2013
Жанр: Мультфильм, комедия
Выпущено: США, Reel FX Creative Studios, Relativity Media
Режиссер: Джимми Хейуорд
В ролях: Оуэн Уилсон, Вуди Харрельсон, Эми Полер, Джордж Такей, Колм Мини, Кит Дэвид, Дэн Фоглер, Джимми Хейуорд, Кейтлин Мехер, Карлос Аласраки

О фильме: Индюки Реджи и Джейк находят машину времени, чтобы отправиться на триста лет назад, дабы раз и навсегда вычеркнуть индейку из праздничного меню.

Качество: BDRip (1080p)
Видео: MPEG-4 AVC, 8800 Кбит/с, 1920x1036, 23.976 кадр/с
Аудио: Русский (DTS, 6 ch, 1510 Кбит/с), (AC3, 6 ch, 640 Кбит/с)
Размер: 6.96 ГБ
Продолжительность: 01:31:02
Перевод: Дублированный [лицензия]

Общее
Уникальный идентификатор : 171057799606022060348686261084076666812 (0x80B088AA46F2624A831B6D0A6B006FBC)
Полное имя : D:INDUKI.2013.1080p.CMEGRoup.mkv
Формат : Matroska
Версия формата : Version 2
Размер файла : 6,96 Гбайт
Продолжительность : 1 ч. 31 м.
Общий поток : 11,0 Мбит/сек
Название фильма : CMEGRoup
Дата кодирования : UTC 2013-12-14 19:12:30
Программа кодирования : mkvmerge v6.3.0 ('You can't stop me!') built on Jun 28 2013 20:09:41
Библиотека кодирования : libebml v1.3.0 + libmatroska v1.4.0
Видео
Идентификатор : 1
Формат : AVC
Формат/Информация : Advanced Video Codec
Профиль формата : High@L4.1
Параметр CABAC формата : Да
Параметр ReFrames формата : 4 кадра
Идентификатор кодека : V_MPEG4/ISO/AVC
Продолжительность : 1 ч. 31 м.
Битрейт : 8800 Кбит/сек
Ширина : 1920 пикселей
Высота : 1036 пикселей
Соотношение сторон : 1,85:1
Режим частоты кадров : Постоянный
Частота кадров : 23,976 кадра/сек
Цветовое пространство : YUV
Субдискретизация насыщенности : 4:2:0
Битовая глубина : 8 бит
Тип развёртки : Прогрессивная
Бит/(Пиксели*Кадры) : 0.185
Размер потока : 5,46 Гбайт (78%)
Библиотека кодирования : x264 core 138 r2358 9e941d1
Настройки программы : cabac=1 / ref=4 / deblock=1:-3:-3 / analyse=0x3:0x113 / me=umh / subme=11 / psy=1 / psy_rd=1.00:0.00 / mixed_ref=1 / me_range=32 / chroma_me=1 / trellis=2 / 8x8dct=1 / cqm=0 / deadzone=21,11 / fast_pskip=1 / chroma_qp_offset=-2 / threads=12 / lookahead_threads=1 / sliced_threads=0 / nr=0 / decimate=1 / interlaced=0 / bluray_compat=0 / constrained_intra=0 / bframes=5 / b_pyramid=2 / b_adapt=1 / b_bias=0 / direct=2 / weightb=1 / open_gop=0 / weightp=2 / keyint=240 / keyint_min=23 / scenecut=40 / intra_refresh=0 / rc_lookahead=40 / rc=2pass / mbtree=1 / bitrate=8800 / ratetol=1.0 / qcomp=0.60 / qpmin=10 / qpmax=51 / qpstep=4 / cplxblur=20.0 / qblur=0.5 / vbv_maxrate=62500 / vbv_bufsize=78125 / nal_hrd=none / ip_ratio=1.40 / aq=1:1.00 / zones=122633,130957,q=40
Язык : English
Default : Да
Forced : Нет
Аудио #1
Идентификатор : 2
Формат : DTS
Формат/Информация : Digital Theater Systems
Режим : 16
Параметр Endianness формата : Big
Идентификатор кодека : A_DTS
Продолжительность : 1 ч. 31 м.
Вид битрейта : Постоянный
Битрейт : 1509 Кбит/сек
Каналы : 6 каналов
Расположение каналов : Front: L C R, Side: L R, LFE
Частота : 48,0 КГц
Битовая глубина : 16 бит
Метод сжатия : С потерями
Размер потока : 983 Мбайт (14%)
Язык : Russian
Default : Да
Forced : Нет
Аудио #2
Идентификатор : 3
Формат : AC-3
Формат/Информация : Audio Coding 3
Расширение режима : CM (complete main)
Параметр Endianness формата : Big
Идентификатор кодека : A_AC3
Продолжительность : 1 ч. 31 м.
Вид битрейта : Постоянный
Битрейт : 640 Кбит/сек
Каналы : 6 каналов
Расположение каналов : Front: L C R, Side: L R, LFE
Частота : 48,0 КГц
Битовая глубина : 16 бит
Метод сжатия : С потерями
Размер потока : 417 Мбайт (6%)
Язык : Russian
Default : Нет
Forced : Нет
Меню
00:00:00.000 : :Chapter 01
00:05:46.637 : :Chapter 02
00:10:19.744 : :Chapter 03
00:16:16.767 : :Chapter 04
00:22:34.686 : :Chapter 05
00:26:28.628 : :Chapter 06
00:33:04.023 : :Chapter 07
00:39:01.255 : :Chapter 08
00:43:44.121 : :Chapter 09
00:48:26.028 : :Chapter 10
00:55:57.270 : :Chapter 11
01:01:39.737 : :Chapter 12
01:07:37.344 : :Chapter 13
01:14:21.248 : :Chapter 14
01:20:09.638 : :Chapter 15
01:23:56.072 : :Chapter 16
01:31:01.956 : :Chapter 17






реклама партнёра


Вернуться к началу
 Профиль  
 
   Похожие торренты   Автор   Торрент   Размер 
В этой теме нет новых непрочитанных сообщений. Индюки: Назад в будущее / Free Birds [Мультфильм, фэнтези, комедия ,2013] BDRip 1080p, Dub [3D-Video | Лицензия]

Dracon

1292 | 78

6.41 ГБ

В этой теме нет новых непрочитанных сообщений. Индюки: Назад в будущее / Free Birds [Мультфильм, комедия, 2013] Blu-Ray Remux 1080p, Dub [Лицензия]

Dracon

10 | 3

11.99 ГБ

В этой теме нет новых непрочитанных сообщений. Индюки: Назад в будущее / Free Birds [Мультфильм, комедия, 2013] BDRip-AVC, Dub [Лицензия]

salma3

28 | 2

1.46 ГБ

В этой теме нет новых непрочитанных сообщений. Индюки: Назад в будущее / Free Birds [Мультфильм, комедия, 2013] BDRip 720p, Dub [Лицензия]

Dracon

0 | 2

3.96 ГБ

В этой теме нет новых непрочитанных сообщений. Индюки: Назад в будущее / Free Birds [Мультфильм, комедия, 2013] HDRip, Dub [Лицензия]

Dracon

2 | 2

1.46 ГБ

В этой теме нет новых непрочитанных сообщений. Angry Birds в кино / The Angry Birds Movie [Мультфильм, боевик, комедия, семейный, 2016] BDRip 720p, Dub+Sub [iTunes]

salma3

12 | 1

4.76 ГБ

В этой теме нет новых непрочитанных сообщений. Самолеты / Planes [Мультфильм, комедия, семейный, полнометражный, 2013] BDRip 1080p, Dub+Sub [Лицензия]

salma3

22 | 2

6.93 ГБ


Начать новую тему Ответить на тему  [ 1 сообщение ] 




Для Мосгорсуда, Роскомнадзора и рекламодателей:: mosgorsud-torrent[собачка]yandex.ru