Торрент файл
скачать торрент магнет ссылка Добавлен: 12 дек 2013, 10:54
Размер: 3.91 ГБ
Сидеров: 150
Личеров: 9
Автор

СообщениеДобавлено: 12 дек 2013, 10:54 

Не в сети
Зам. Админа
Аватара пользователя
Дата регистрации:
02 дек 2010, 12:39
Спасибо: 12461 / 214
Сообщения: 27968
Год выпуска: 2013
Жанр: Мультфильм, комедия, семейный, полнометражный
Выпущено: США, Walt Disney
Режиссер: Клэй Холл
В ролях: Кери Расселл, Джон Крайер, Карлос Алазраки

О фильме: Забавная история о похождениях винтового самолетика в мире современных воздушных кораблей. Маленький самолетик оказывается среди больших крылатых машин, умеющих неподражаемо рассекать воздух и выделяющихся современным дизайном. Самолетик чувствует себя неловко в их обществе. Они же относятся к нему по-разному: кто-то с иронией, а кто-то с заботой.

Качество: BDRip (720p)
Видео: MPEG-4 AVC, 3963 Кбит/с, 1280x720
Аудио: Русский (AC3, 6 ch, 640 Кбит/с), английский (DTS, 6 ch, 1510 Кбит/с)
Размер: 3.91 ГБ
Продолжительность: 01:31:35
Перевод: Дублированный [лицензия]
Субтитры: Русские, английские

бщее
Уникальный идентификатор : 199458792097983196315650136406382125665 (0x960E5DB49E88BC7F837AA7BE7F80A261)
Полное имя : D:Planes.2013.BluRay.720p.mkv
Формат : Matroska
Версия формата : Version 2
Размер файла : 3,91 Гбайт
Продолжительность : 1 ч. 31 м.
Общий поток : 6104 Кбит/сек
Дата кодирования : UTC 2013-12-11 16:16:15
Программа кодирования : mkvmerge v6.3.0 ('You can't stop me!') built on Jun 28 2013 20:09:41
Библиотека кодирования : libebml v1.3.0 + libmatroska v1.4.0
Видео
Идентификатор : 1
Формат : AVC
Формат/Информация : Advanced Video Codec
Профиль формата : High@L4.1
Параметр CABAC формата : Да
Параметр ReFrames формата : 8 кадров
Идентификатор кодека : V_MPEG4/ISO/AVC
Продолжительность : 1 ч. 31 м.
Битрейт : 3963 Кбит/сек
Ширина : 1280 пикселей
Высота : 720 пикселей
Соотношение сторон : 16:9
Режим частоты кадров : Постоянный
Частота кадров : 23,976 кадра/сек
Цветовое пространство : YUV
Субдискретизация насыщенности : 4:2:0
Битовая глубина : 8 бит
Тип развёртки : Прогрессивная
Бит/(Пиксели*Кадры) : 0.179
Размер потока : 2,45 Гбайт (63%)
Библиотека кодирования : x264 core 138 r2356 a1d3d17
Настройки программы : cabac=1 / ref=8 / deblock=1:-2:-2 / analyse=0x3:0x113 / me=umh / subme=10 / psy=1 / psy_rd=1.00:0.05 / mixed_ref=1 / me_range=32 / chroma_me=1 / trellis=2 / 8x8dct=1 / cqm=0 / deadzone=21,11 / fast_pskip=0 / chroma_qp_offset=-2 / threads=18 / lookahead_threads=1 / sliced_threads=0 / nr=0 / decimate=1 / interlaced=0 / bluray_compat=0 / constrained_intra=0 / bframes=4 / b_pyramid=2 / b_adapt=2 / b_bias=0 / direct=3 / weightb=1 / open_gop=0 / weightp=2 / keyint=250 / keyint_min=23 / scenecut=40 / intra_refresh=0 / rc=2pass / mbtree=0 / bitrate=3963 / ratetol=1.0 / qcomp=0.70 / qpmin=0 / qpmax=69 / qpstep=4 / cplxblur=20.0 / qblur=0.5 / ip_ratio=1.40 / pb_ratio=1.30 / aq=2:1.00
Язык : English
Default : Да
Forced : Нет
Аудио #1
Идентификатор : 2
Формат : AC-3
Формат/Информация : Audio Coding 3
Расширение режима : CM (complete main)
Параметр Endianness формата : Big
Идентификатор кодека : A_AC3
Продолжительность : 1 ч. 31 м.
Вид битрейта : Постоянный
Битрейт : 640 Кбит/сек
Каналы : 6 каналов
Расположение каналов : Front: L C R, Side: L R, LFE
Частота : 48,0 КГц
Битовая глубина : 16 бит
Метод сжатия : С потерями
Размер потока : 419 Мбайт (10%)
Заголовок : 640 BD CEE
Язык : Russian
Default : Да
Forced : Нет
Аудио #2
Идентификатор : 3
Формат : DTS
Формат/Информация : Digital Theater Systems
Режим : 16
Параметр Endianness формата : Big
Идентификатор кодека : A_DTS
Продолжительность : 1 ч. 31 м.
Вид битрейта : Постоянный
Битрейт : 1509 Кбит/сек
Каналы : 6 каналов
Расположение каналов : Front: L C R, Side: L R, LFE
Частота : 48,0 КГц
Битовая глубина : 24 бит
Метод сжатия : С потерями
Размер потока : 989 Мбайт (25%)
Язык : English
Default : Нет
Forced : Нет
Текст #1
Идентификатор : 4
Формат : UTF-8
Идентификатор кодека : S_TEXT/UTF8
Идентификатор кодека/Информация : UTF-8 Plain Text
Язык : Russian
Default : Да
Forced : Нет
Текст #2
Идентификатор : 5
Формат : UTF-8
Идентификатор кодека : S_TEXT/UTF8
Идентификатор кодека/Информация : UTF-8 Plain Text
Язык : Russian
Default : Нет
Forced : Нет
Текст #3
Идентификатор : 6
Формат : UTF-8
Идентификатор кодека : S_TEXT/UTF8
Идентификатор кодека/Информация : UTF-8 Plain Text
Заголовок : English (Full)
Язык : English
Default : Нет
Forced : Нет
Текст #4
Идентификатор : 7
Формат : UTF-8
Идентификатор кодека : S_TEXT/UTF8
Идентификатор кодека/Информация : UTF-8 Plain Text
Заголовок : English (SDH)
Язык : English
Default : Нет
Forced : Нет
Текст #5
Идентификатор : 8
Формат : UTF-8
Идентификатор кодека : S_TEXT/UTF8
Идентификатор кодека/Информация : UTF-8 Plain Text
Заголовок : English (SDH-Colored)
Язык : English
Default : Нет
Forced : Нет
Меню
00:00:00.000 : en:Chapter 00
00:04:41.990 : en:Chapter 01
00:07:23.234 : en:Chapter 02
00:09:04.293 : en:Chapter 03
00:14:38.085 : en:Chapter 04
00:17:30.549 : en:Chapter 05
00:24:58.872 : en:Chapter 06
00:30:10.767 : en:Chapter 07
00:36:28.185 : en:Chapter 08
00:40:37.517 : en:Chapter 09
00:42:51.193 : en:Chapter 10
00:48:07.801 : en:Chapter 11
00:51:37.802 : en:Chapter 12
00:56:22.378 : en:Chapter 13
01:00:06.143 : en:Chapter 14
01:01:59.923 : en:Chapter 15
01:07:05.312 : en:Chapter 16
01:10:13.041 : en:Chapter 17
01:12:27.133 : en:Chapter 18
01:16:26.914 : en:Chapter 19







реклама партнёра


Вернуться к началу
 Профиль  
 
   Похожие торренты   Автор   Торрент   Размер 
В этой теме нет новых непрочитанных сообщений. Самолёты / Planes [Мультфильм, комедия, семейный, полнометражный, 2013] DVD9, Dub+Sub [Лицензия]

Dracon

11 | 6

5.99 ГБ

В этой теме нет новых непрочитанных сообщений. Самолеты: Огонь и вода / Planes: Fire and Rescue [мультфильм, комедия, приключения, семейный, 2014] BDRip 720p, Dub [Лицензия]

Dracon

11 | 2

4.9 ГБ

В этой теме нет новых непрочитанных сообщений. Самолеты: Огонь и вода / Planes: Fire and Rescue Самолеты: Огонь и вода / Planes: Fire and Rescue [мультфильм, комедия, приключения, семейный, 2014] BDRip 720p, Dub [iTunes]

Dracon

4 | 2

4.79 ГБ

В этой теме нет новых непрочитанных сообщений. Самолеты: Огонь и вода / Planes: Fire and Rescue [мультфильм, комедия, приключения, семейный, 2014] BDRip 1080p, Dub+Sub [3D-Video | Лицензия]

Dracon

268 | 14

4.48 ГБ

В этой теме нет новых непрочитанных сообщений. Самолеты: Огонь и вода / Planes: Fire and Rescue [мультфильм, комедия, приключения, семейный, 2014] BDRip 720p, dub [звук с TS]

Dracon

44 | 3

2.79 ГБ

В этой теме нет новых непрочитанных сообщений. Самолеты: Огонь и вода / Planes: Fire and Rescue [мультфильм, комедия, приключения, семейный, 2014] BDRip 720p, dub [Чиcтый звук]

Dracon

2 | 2

4.62 ГБ

В этой теме нет новых непрочитанных сообщений. Самолеты: Огонь и вода / Planes: Fire and Rescue Самолеты: Огонь и вода / Planes: Fire and Rescue [мультфильм, комедия, приключения, семейный, 2014] Blu-ray 1080p, Dub+Sub

Dracon

15 | 5

29.47 ГБ


Начать новую тему Ответить на тему  [ 1 сообщение ] 




Для Мосгорсуда, Роскомнадзора и рекламодателей:: mosgorsud-torrent[собачка]yandex.ru