Торрент файл
скачать торрент магнет ссылка Добавлен: 03 дек 2013, 11:40
Размер: 4 ГБ
Сидеров: 11
Личеров: 2
Статус: (Dracon)
Автор

СообщениеДобавлено: 03 дек 2013, 11:40 

Не в сети
Зам. Админа
Аватара пользователя
Дата регистрации:
02 дек 2010, 12:39
Спасибо: 12461 / 214
Сообщения: 27968
Год выхода: 2013
Жанр: мультфильм, приключения
Режиссер: Мануэль Сисилия
В ролях: Фредди Хаймор, Сирша Ронан, Марк Стронг, Дэвид Уоллиамс, Антонио Бандерас, Альфред Молина, Джули Уолтерс, Оливия Уильямс, Чарльз Дэнс, Руперт Эверетт

О фильме: Действие мультфильма разворачивается в магическом мире, о котором мечтает каждый ребёнок. Джастин мечтает стать рыцарем, но на его пути появляется много препятствий бюрократического характера. Даже отец Джастина против рыцарства и хочет, чтобы сын стал придворным служащим. Тогда мальчик, обуреваемый желанием стать настоящим доблестным Рыцарем, сбегает из дома в поисках приключений. По дороге он знакомится с прекрасной девушкой — Талией, вдохновляющей его на новые подвиги, и встречает мудрых рыцарей-наставников, которые обучают его рыцарскому мастерству. Но хватит ли Джастину полученных знаний для того, чтобы справиться с угрозой, которая нависла над его Королевством? Сумеет ли мальчик преодолеть все препятствия и достичь своей мечты?


Выпущено: Испания, Aliwood Mediterráneo Producciones, Kandor Graphics, Ono, Out Of The Box Feature
Продолжительность: 01:35:48
Озвучивание: Дублированное [лицензия]

Формат: MKV
Качество: BDRip 720p [Рип с Blu-Ray]
Видео: 5334 kb/s, 1280x536
Аудио: AC3, 640 kb/s (6 ch)

Format : Matroska
Format version : Version 4 / Version 2
File size : 4.00 GiB
Duration : 1h 35mn
Overall bit rate : 5 975 Kbps
Encoded date : UTC 2013-12-03 07:08:09
Writing application : mkvmerge v6.1.0 ('Old Devil') built on Mar 4 2013 09:10:42
Writing library : libebml v1.3.0 + libmatroska v1.4.0

Video
ID : 1
Format : AVC
Format/Info : Advanced Video Codec
Format profile : High@L4.1
Format settings, CABAC : Yes
Format settings, ReFrames : 10 frames
Codec ID : V_MPEG4/ISO/AVC
Duration : 1h 35mn
Bit rate : 5 334 Kbps
Width : 1 280 pixels
Height : 536 pixels
Display aspect ratio : 2.40:1
Frame rate : 23.976 fps
Color space : YUV
Chroma subsampling : 4:2:0
Bit depth : 8 bits
Scan type : Progressive
Bits/(Pixel*Frame) : 0.324
Stream size : 3.49 GiB (87%)
Writing library : x264 core 130 r2273 b3065e6
Encoding settings : cabac=1 / ref=10 / deblock=1:-3:-3 / analyse=0x3:0x133 / me=umh / subme=11 / psy=1 / psy_rd=1.00:0.20 / mixed_ref=1 / me_range=32 / chroma_me=1 / trellis=2 / 8x8dct=1 / cqm=0 / deadzone=21,11 / fast_pskip=0 / chroma_qp_offset=-3 / threads=12 / lookahead_threads=2 / sliced_threads=0 / nr=0 / decimate=0 / interlaced=0 / bluray_compat=0 / constrained_intra=0 / bframes=8 / b_pyramid=2 / b_adapt=2 / b_bias=0 / direct=3 / weightb=1 / open_gop=0 / weightp=2 / keyint=250 / keyint_min=23 / scenecut=40 / intra_refresh=0 / rc=2pass / mbtree=0 / bitrate=5334 / ratetol=1.0 / qcomp=0.60 / qpmin=0 / qpmax=69 / qpstep=4 / cplxblur=20.0 / qblur=0.5 / ip_ratio=1.40 / pb_ratio=1.30 / aq=1:1.00
Language : Russian
Default : Yes
Forced : No

Audio
ID : 2
Format : AC-3
Format/Info : Audio Coding 3
Mode extension : CM (complete main)
Format settings, Endianness : Big
Codec ID : A_AC3
Duration : 1h 35mn
Bit rate mode : Constant
Bit rate : 640 Kbps
Channel(s) : 6 channels
Channel positions : Front: L C R, Side: L R, LFE
Sampling rate : 48.0 KHz
Bit depth : 16 bits
Compression mode : Lossy
Stream size : 439 MiB (11%)
Language : Russian
Default : Yes
Forced : No

Menu
00:00:00.000 : ru:1
00:15:15.289 : ru:2
00:28:01.513 : ru:3
00:48:51.387 : ru:4
01:06:21.644 : ru:5


Рип: 03nazar03




реклама партнёра


Вернуться к началу
 Профиль  
 
   Похожие торренты   Автор   Торрент   Размер 
В этой теме нет новых непрочитанных сообщений. Джастин и рыцари доблести / Justin and the Knights of Valour [Мультфильм, фэнтези, комедия ,2013] BDRip 1080p, Dub [3D-Video | German Transfer]

Dracon

696 | 137

5.22 ГБ

В этой теме нет новых непрочитанных сообщений. Последние рыцари / Last Knights (Казуаки Кирия) [боевик, приключения, 2015] BDRip 720p, Dub [Лицензия]

Dracon

265 | 16

5.16 ГБ

В этой теме нет новых непрочитанных сообщений. Последние рыцари / Last Knights (Казуаки Кирия) [боевик, приключения, 2015] BDRip 1080p, Dub [Лицензия]

Dracon

729 | 516

9.32 ГБ

В этой теме нет новых непрочитанных сообщений. Рыцари королевства Крутизны / Knights of Badassdom [комедия, фэнтези, ужасы, 2013] BDRip 720p, mvo+sub

Dracon

77 | 11

3.73 ГБ

В этой теме нет новых непрочитанных сообщений. Рыцари королевства Крутизны / Knights of Badassdom [приключения, комедия, фэнтези, 2013] BDRip 1080p, Mvo

salma3

37 | 3

7.13 ГБ

В этой теме нет новых непрочитанных сообщений. Последние рыцари / Last Knights (Казуаки Кирия) [боевик, приключения, 2015] HDRip, Dub [Лицензия]

Dracon

1 | 0

1.46 ГБ

В этой теме нет новых непрочитанных сообщений. Последние рыцари / Last Knights (Казуаки Кирия) [боевик, приключения, 2015] DVD5, Dub [Лицензия]

Dracon

73 | 3

3.51 ГБ


Начать новую тему Ответить на тему  [ 1 сообщение ] 




Для Мосгорсуда, Роскомнадзора и рекламодателей:: mosgorsud-torrent[собачка]yandex.ru