Торрент файл
скачать торрент магнет ссылка Добавлен: 03 дек 2013, 10:42
Размер: 7 ГБ
Сидеров: 7
Личеров: 5
Статус: (Dracon)
Автор

СообщениеДобавлено: 03 дек 2013, 10:42 

Не в сети
Зам. Админа
Аватара пользователя
Дата регистрации:
02 дек 2010, 12:39
Спасибо: 12461 / 214
Сообщения: 27968
Год выпуска: 2013
Жанр: Мультфильм, приключения
Выпущено: Испания, Aliwood Mediterráneo Producciones, Kandor Graphics, Ono, Out Of The Box Feature
Режиссер: Мануэль Сисилия
В ролях: Фредди Хаймор, Сирша Ронан, Марк Стронг, Дэвид Уоллиамс, Антонио Бандерас, Альфред Молина, Джули Уолтерс, Оливия Уильямс,
Чарльз Дэнс, Руперт Эверетт

О фильме: Действие мультфильма разворачивается в магическом мире, о котором мечтает каждый ребёнок. Джастин мечтает стать рыцарем, но на его пути появляется много препятствий бюрократического характера. Даже отец Джастина против рыцарства и хочет, чтобы сын стал придворным служащим. Тогда мальчик, обуреваемый желанием стать настоящим доблестным Рыцарем, сбегает из дома в поисках приключений. По дороге он знакомится с прекрасной девушкой — Талией, вдохновляющей его на новые подвиги, и встречает мудрых рыцарей-наставников, которые обучают его рыцарскому мастерству. Но хватит ли Джастину полученных знаний для того, чтобы справиться с угрозой, которая нависла над его Королевством? Сумеет ли мальчик преодолеть все препятствия и достичь своей мечты?

Качество: BDRip (1080p)
Видео: MPEG-4 AVC, 8500 Кбит/с, 1920x804, 23.976 кадр/с
Аудио: Русский (DTS, 6 ch, 1510 Кбит/с), (AC3, 6 ch, 448 Кбит/с)
Размер: 7 ГБ
Продолжительность: 01:36:10
Перевод: Дублированный [лицензия]
Общее
Уникальный идентификатор : 172154633217624022533557089966879096121 (0x8183C6BCC4CC0B6F9DFCA3418CB73D39)
Полное имя : D:JUSTIN_1080p_CMEGRoup.mkv
Формат : Matroska
Версия формата : Version 2
Размер файла : 7,00 Гбайт
Продолжительность : 1 ч. 35 м.
Общий поток : 10,5 Мбит/сек
Название фильма : CMEGRoup
Дата кодирования : UTC 2013-12-02 20:45:06
Программа кодирования : mkvmerge v6.3.0 ('You can't stop me!') built on Jun 28 2013 20:09:41
Библиотека кодирования : libebml v1.3.0 + libmatroska v1.4.0
Видео
Идентификатор : 1
Формат : AVC
Формат/Информация : Advanced Video Codec
Профиль формата : High@L4.1
Параметр CABAC формата : Да
Параметр ReFrames формата : 4 кадра
Идентификатор кодека : V_MPEG4/ISO/AVC
Продолжительность : 1 ч. 35 м.
Битрейт : 8500 Кбит/сек
Ширина : 1920 пикселей
Высота : 804 пикселя
Соотношение сторон : 2,40:1
Режим частоты кадров : Постоянный
Частота кадров : 23,976 кадра/сек
Цветовое пространство : YUV
Субдискретизация насыщенности : 4:2:0
Битовая глубина : 8 бит
Тип развёртки : Прогрессивная
Бит/(Пиксели*Кадры) : 0.230
Размер потока : 5,55 Гбайт (79%)
Библиотека кодирования : x264 core 138 r2358 9e941d1
Настройки программы : cabac=1 / ref=4 / deblock=1:-3:-3 / analyse=0x3:0x113 / me=umh / subme=11 / psy=1 / psy_rd=1.00:0.00 / mixed_ref=1 / me_range=48 / chroma_me=1 / trellis=2 / 8x8dct=1 / cqm=0 / deadzone=21,11 / fast_pskip=1 / chroma_qp_offset=-2 / threads=12 / lookahead_threads=1 / sliced_threads=0 / nr=0 / decimate=1 / interlaced=0 / bluray_compat=0 / constrained_intra=0 / bframes=5 / b_pyramid=2 / b_adapt=1 / b_bias=0 / direct=2 / weightb=1 / open_gop=0 / weightp=2 / keyint=240 / keyint_min=23 / scenecut=40 / intra_refresh=0 / rc_lookahead=40 / rc=2pass / mbtree=1 / bitrate=8500 / ratetol=1.0 / qcomp=0.60 / qpmin=10 / qpmax=51 / qpstep=4 / cplxblur=20.0 / qblur=0.5 / vbv_maxrate=62500 / vbv_bufsize=78125 / nal_hrd=none / ip_ratio=1.40 / aq=1:1.00 / zones=130024,137831,q=40
Язык : English
Default : Да
Forced : Нет
Аудио #1
Идентификатор : 2
Формат : DTS
Формат/Информация : Digital Theater Systems
Режим : 16
Параметр Endianness формата : Big
Идентификатор кодека : A_DTS
Продолжительность : 1 ч. 35 м.
Вид битрейта : Постоянный
Битрейт : 1509 Кбит/сек
Каналы : 6 каналов
Расположение каналов : Front: L C R, Side: L R, LFE
Частота : 48,0 КГц
Битовая глубина : 24 бит
Метод сжатия : С потерями
Размер потока : 1,01 Гбайт (14%)
Язык : Russian
Default : Да
Forced : Нет
Аудио #2
Идентификатор : 3
Формат : AC-3
Формат/Информация : Audio Coding 3
Расширение режима : CM (complete main)
Параметр Endianness формата : Big
Идентификатор кодека : A_AC3
Продолжительность : 1 ч. 35 м.
Вид битрейта : Постоянный
Битрейт : 448 Кбит/сек
Каналы : 6 каналов
Расположение каналов : Front: L C R, Side: L R, LFE
Частота : 48,0 КГц
Битовая глубина : 16 бит
Метод сжатия : С потерями
Размер потока : 307 Мбайт (4%)
Язык : Russian
Default : Нет
Forced : Нет
Меню
00:00:00.000 : en:00:00:00.000
00:15:15.289 : en:00:15:15.289
00:28:01.513 : en:00:28:01.513
00:48:51.387 : en:00:48:51.387
01:06:21.644 : en:01:06:21.644
01:25:22.868 : en:01:25:22.868








реклама партнёра


Вернуться к началу
 Профиль  
 
   Похожие торренты   Автор   Торрент   Размер 
В этой теме нет новых непрочитанных сообщений. Джастин и рыцари доблести / Justin and the Knights of Valour [Мультфильм, фэнтези, комедия ,2013] BDRip 1080p, Dub [3D-Video | German Transfer]

Dracon

696 | 137

5.22 ГБ

В этой теме нет новых непрочитанных сообщений. Последние рыцари / Last Knights (Казуаки Кирия) [боевик, приключения, 2015] BDRip 1080p, Dub [Лицензия]

Dracon

729 | 516

9.32 ГБ

В этой теме нет новых непрочитанных сообщений. Рыцари королевства Крутизны / Knights of Badassdom [приключения, комедия, фэнтези, 2013] BDRip 1080p, Mvo

salma3

37 | 3

7.13 ГБ

В этой теме нет новых непрочитанных сообщений. Последние рыцари / Last Knights (Казуаки Кирия) [боевик, приключения, 2015] BDRip 720p, Dub [Лицензия]

Dracon

265 | 16

5.16 ГБ

В этой теме нет новых непрочитанных сообщений. Последние рыцари / Last Knights (Казуаки Кирия) [боевик, приключения, 2015] HDRip, Dub [Лицензия]

Dracon

1 | 0

1.46 ГБ

В этой теме нет новых непрочитанных сообщений. Последние рыцари / Last Knights (Казуаки Кирия) [боевик, приключения, 2015] Blu-Ray 1080i, Dub [Лицензия]

Dracon

116 | 13

19.47 ГБ

В этой теме нет новых непрочитанных сообщений. Последние рыцари / Last Knights (Казуаки Кирия) [боевик, приключения, 2015] DVD5, Dub [Лицензия]

Dracon

73 | 3

3.51 ГБ


Начать новую тему Ответить на тему  [ 1 сообщение ] 




Для Мосгорсуда, Роскомнадзора и рекламодателей:: mosgorsud-torrent[собачка]yandex.ru