Торрент файл
скачать торрент магнет ссылка Добавлен: 30 ноя 2013, 09:45
Размер: 2.61 ГБ
Сидеров: 10
Личеров: 5
Статус: (Dracon)
Автор

СообщениеДобавлено: 30 ноя 2013, 09:45 

Не в сети
Зам. Админа
Аватара пользователя
Дата регистрации:
02 дек 2010, 12:39
Спасибо: 12460 / 214
Сообщения: 27968
Год выпуска: 2013
Страна: Россия / Кинокомпания CTB, Руссобит-М...
Жанр: мультфильм, фэнтези
Продолжительность: 01:08:41

Перевод: Не требуется
Cубтитры: нет
Оригинальная аудиодорожка: русский

Режиссер: Георгий Гитис, Вячеслав Плотников

В ролях: Михаил Озеров, Дмитрий Дюжев, Юлия Савичева, Андрей Леонов, Нонна Гришаева, Алексей Колган, Михаил Хрусталев, Анатолий Петров, Юлия Галдун, Владимир Горбунов...

Описание: Во исполнение воли царя Берендея, младший сын его Иван отправляется на поиски диковинной Жар-птицы. В поисках удачи Ивана Царевича сопровождает верный друг и помощник — Серый Волк, который, обладает всевозможными навыками и всегда спешит на помощь простодушному Ивану. Героев ждут увлекательные и опасные приключения, козни коварных братьев Ивана и его судьбоносная встреча с Еленой Прекрасной. Юные зрители погрузятся в волшебный мир русской сказки, с её традициями и характерной эстетикой, причудливо перемежающейся с приметами современного жанрового кино. Ну, а родители оценят актуальный юмор и модную современную музыку, написанную специально для фильма популярными рок-музыкантами.



Качество: BDRip 720p
Формат: MKV
Видео: 1280x720 (16:9), 24.000 fps, H264 ~5000 kbps avg, 0.226 bit/pixel
Аудио: Русский 48 kHz, АС3, 6 ch, 448.00 kbps Constant
Дополнительно: Фильм разбит на главы, как на оригинальном Blu-ray диске.

Общее
Полное имя : Kak.poimat.pero.Jar-Ptitsy.2013.O.BDRip.720p_[New-Team]_by_avproh.mkv
Формат : Matroska
Версия формата : Version 4 / Version 2
Размер файла : 2,61 Гбайт
Продолжительность : 1 ч. 8 м.
Общий поток : 5447 Кбит/сек
Дата кодирования : UTC 2013-11-29 21:23:35
Программа кодирования : mkvmerge v6.5.0 ('Isn't she lovely') built on Oct 20 2013 12:50:05
Библиотека кодирования : libebml v1.3.0 + libmatroska v1.4.1

Видео
Идентификатор : 1
Формат : AVC
Формат/Информация : Advanced Video Codec
Профиль формата : High@L4.1
Параметр CABAC формата : Да
Параметр ReFrames формата : 4 кадра
Идентификатор кодека : V_MPEG4/ISO/AVC
Продолжительность : 1 ч. 8 м.
Битрейт : 5000 Кбит/сек
Ширина : 1280 пикселей
Высота : 720 пикселей
Соотношение сторон : 16:9
Режим частоты кадров : Постоянный
Частота кадров : 24,000 кадра/сек
Цветовое пространство : YUV
Субдискретизация насыщенности : 4:2:0
Битовая глубина : 8 бит
Тип развёртки : Прогрессивная
Бит/(Пиксели*Кадры) : 0.226
Размер потока : 2,35 Гбайт (90%)
Библиотека кодирования : x264 core 138 r2356 a1d3d17
Настройки программы : cabac=1 / ref=4 / deblock=1:-3:-3 / analyse=0x3:0x133 / me=umh / subme=10 / psy=1 / psy_rd=1.00:0.05 / mixed_ref=1 / me_range=32 / chroma_me=1 / trellis=2 / 8x8dct=1 / cqm=0 / deadzone=21,11 / fast_pskip=0 / chroma_qp_offset=-3 / threads=6 / lookahead_threads=1 / sliced_threads=0 / nr=0 / decimate=0 / interlaced=0 / bluray_compat=0 / constrained_intra=0 / bframes=8 / b_pyramid=2 / b_adapt=2 / b_bias=0 / direct=3 / weightb=1 / open_gop=0 / weightp=2 / keyint=240 / keyint_min=24 / scenecut=40 / intra_refresh=0 / rc=2pass / mbtree=0 / bitrate=5000 / ratetol=1.0 / qcomp=0.60 / qpmin=0 / qpmax=69 / qpstep=4 / cplxblur=20.0 / qblur=0.5 / ip_ratio=1.40 / pb_ratio=1.30 / aq=1:1.00
Язык : Russian
Default : Да
Forced : Нет

Аудио
Идентификатор : 2
Формат : AC-3
Формат/Информация : Audio Coding 3
Расширение режима : CM (complete main)
Параметр Endianness формата : Big
Идентификатор кодека : A_AC3
Продолжительность : 1 ч. 8 м.
Вид битрейта : Постоянный
Битрейт : 448 Кбит/сек
Каналы : 6 каналов
Расположение каналов : Front: L C R, Side: L R, LFE
Частота : 48,0 КГц
Битовая глубина : 16 бит
Метод сжатия : С потерями
Размер потока : 220 Мбайт (8%)
Язык : Russian
Default : Да
Forced : Нет

Меню
00:00:00.000 : en:00:00:00.000
00:08:01.625 : en:00:08:01.625
00:17:43.167 : en:00:17:43.167
00:25:37.250 : en:00:25:37.250
00:34:31.917 : en:00:34:31.917
00:42:31.417 : en:00:42:31.417
00:50:48.208 : en:00:50:48.208
00:59:22.708 : en:00:59:22.708






реклама партнёра


Вернуться к началу
 Профиль  
 
   Похожие торренты   Автор   Торрент   Размер 
В этой теме нет новых непрочитанных сообщений. За тридевять земель / Resan till Fjaderkungens Rike [мультфильм, фэнтези, 2013] BDRip 720p, Dub [лицензия]

Dracon

346 | 13

3.52 ГБ

В этой теме нет новых непрочитанных сообщений. Холодное сердце / Frozen [Мультфильм, фэнтези, комедия, приключения, семейный, 2013] BDRip 720p, Dub+Sub [Лицензия]

Dracon

1219 | 26

4.37 ГБ

В этой теме нет новых непрочитанных сообщений. Холодное сердце / Frozen [Мультфильм, фэнтези, комедия, приключения, семейный, 2013] BDRip-AVC, Dub+Sub [Лицензия]

Dracon

6262 | 148

1.47 ГБ

В этой теме нет новых непрочитанных сообщений. Дом / Home (Тим Джонсон) [мультфильм, фантастика, фэнтези, комедия, приключения, семейный, 2015] BDRip 720p, Dub+Sub [лицензия]

Dracon

0 | 0

4.8 ГБ

В этой теме нет новых непрочитанных сообщений. Оз: Нашествие летучих обезьян / Guardianes de Oz (Альберто Мар) [мультфильм, фэнтези, приключения, 2015] BDRip 720p, Dub [Лицензия]

Dracon

40 | 0

2.63 ГБ

В этой теме нет новых непрочитанных сообщений. Три богатыря: Ход конем (Константин Феоктистов) [мультфильм, комедия, приключения, фэнтези, 2014] BDRip 720p [Лицензия]

Dracon

15 | 2

3.65 ГБ

В этой теме нет новых непрочитанных сообщений. За тридевять земель / Resan till Fjäderkungens Rike [мультфильм, фэнтези, 2013] BDRip 1080p, Dub [лицензия]

Dracon

453 | 24

4.62 ГБ


Начать новую тему Ответить на тему  [ 1 сообщение ] 




Для Мосгорсуда, Роскомнадзора и рекламодателей:: mosgorsud-torrent[собачка]yandex.ru