Торрент файл
скачать торрент магнет ссылка Добавлен: 29 ноя 2013, 20:11
Размер: 1.37 ГБ
Сидеров: 640
Личеров: 12
Статус: (Dracon)
Автор

СообщениеДобавлено: 29 ноя 2013, 20:11 

Не в сети
Зам. Админа
Аватара пользователя
Дата регистрации:
02 дек 2010, 12:39
Спасибо: 12579 / 214
Сообщения: 28057
Год выпуска: 2013
Страна: Россия / Кинокомпания CTB, Руссобит-М...
Жанр: мультфильм, фэнтези
Продолжительность: 01:08:41

Перевод: Не требуется
Cубтитры: нет
Оригинальная аудиодорожка: русский

Режиссер: Георгий Гитис, Вячеслав Плотников

В ролях: Михаил Озеров, Дмитрий Дюжев, Юлия Савичева, Андрей Леонов, Нонна Гришаева, Алексей Колган, Михаил Хрусталев, Анатолий Петров, Юлия Галдун, Владимир Горбунов...

Описание: Во исполнение воли царя Берендея, младший сын его Иван отправляется на поиски диковинной Жар-птицы. В поисках удачи Ивана Царевича сопровождает верный друг и помощник — Серый Волк, который, обладает всевозможными навыками и всегда спешит на помощь простодушному Ивану. Героев ждут увлекательные и опасные приключения, козни коварных братьев Ивана и его судьбоносная встреча с Еленой Прекрасной. Юные зрители погрузятся в волшебный мир русской сказки, с её традициями и характерной эстетикой, причудливо перемежающейся с приметами современного жанрового кино. Ну, а родители оценят актуальный юмор и модную современную музыку, написанную специально для фильма популярными рок-музыкантами.



Качество: BDRip
Формат: AVI
Видео: 720x400 (16:9), 24.000 fps, XVID ~2394 kbps avg, 0.346 bit/pixel
Аудио: Русский 48 kHz, АС3, 6 ch, 448.00 kbps Constant

Общее
Полное имя : Kak.poimat.pero.Jar-Ptitsy.2013.O.BDRip_[New-Team]_by_avproh.avi
Формат : AVI
Формат/Информация : Audio Video Interleave
Размер файла : 1,37 Гбайт
Продолжительность : 1 ч. 8 м.
Общий поток : 2851 Кбит/сек
Программа кодирования : VirtualDubModRus 1.5.10.2 (build 2542/release)
Библиотека кодирования : VirtualDubMod build 2542/release

Видео
Идентификатор : 0
Формат : MPEG-4 Visual
Профиль формата : Advanced Simple@L5
Параметр BVOP формата : 1
Параметр QPel формата : Нет
Параметр GMC формата : Без точки перехода
Параметр матрицы формата : Выборочная
Идентификатор кодека : XVID
Идентификатор кодека/Подсказка : XviD
Продолжительность : 1 ч. 8 м.
Битрейт : 2394 Кбит/сек
Ширина : 720 пикселей
Высота : 400 пикселей
Соотношение сторон : 16:9
Частота кадров : 24,000 кадра/сек
Цветовое пространство : YUV
Субдискретизация насыщенности : 4:2:0
Битовая глубина : 8 бит
Тип развёртки : Прогрессивная
Метод сжатия : С потерями
Бит/(Пиксели*Кадры) : 0.346
Размер потока : 1,15 Гбайт (84%)
Библиотека кодирования : XviD 73

Аудио
Идентификатор : 1
Формат : AC-3
Формат/Информация : Audio Coding 3
Расширение режима : CM (complete main)
Параметр Endianness формата : Big
Идентификатор кодека : 2000
Продолжительность : 1 ч. 8 м.
Вид битрейта : Постоянный
Битрейт : 448 Кбит/сек
Каналы : 6 каналов
Расположение каналов : Front: L C R, Side: L R, LFE
Частота : 48,0 КГц
Битовая глубина : 16 бит
Метод сжатия : С потерями
Размер потока : 220 Мбайт (16%)
Выравнивание : Разделение по промежуткам
Продолжительность промежутка : 42 мс. (1,00 видеокадр)
Время предзагрузки промежутка : 500 мс.






реклама партнёра


Вернуться к началу
 Профиль  
 
   Похожие торренты   Автор   Торрент   Размер 
В этой теме нет новых непрочитанных сообщений. За тридевять земель / Resan till Fjaderkungens Rike [мультфильм, фэнтези, 2013] BDRip 720p, Dub [лицензия]

Dracon

346 | 13

3.52 ГБ

В этой теме нет новых непрочитанных сообщений. За тридевять земель / Resan till Fjäderkungens Rike [мультфильм, фэнтези, 2013] BDRip 1080p, Dub [лицензия]

Dracon

453 | 24

4.62 ГБ

В этой теме нет новых непрочитанных сообщений. Как поймать монстра / Lost River (Райан Гослинг) [Фэнтези, триллер, 2014] BDRip 1080p, dub [Чистый звук]

Dracon

146 | 9

7.9 ГБ

В этой теме нет новых непрочитанных сообщений. Моана / Moana [мультфильм, мюзикл, фэнтези, 2016] BDRip-AVC, Dub+Sub [Лицензия]

salma3

537 | 92

2.91 ГБ

В этой теме нет новых непрочитанных сообщений. Моана / Moana [мультфильм, мюзикл, фэнтези, 2016] BDRip, Dub [Лицензия]

salma3

337 | 26

1.46 ГБ

В этой теме нет новых непрочитанных сообщений. Тролли / Trolls [Мультфильм, мюзикл, фэнтези, 2016] BDRip, Dub [Лицензия]

salma3

579 | 86

1.46 ГБ

В этой теме нет новых непрочитанных сообщений. Аисты / Storks [Мультфильм, фэнтези, комедия, семейный, 2016] BDRip-AVC, Dub [Лицензия ]

salma3

344 | 47

1.46 ГБ


Начать новую тему Ответить на тему  [ 1 сообщение ] 




Для Мосгорсуда, Роскомнадзора и рекламодателей:: mosgorsud-torrent[собачка]yandex.ru