Торрент файл
скачать торрент магнет ссылка Добавлен: 05 ноя 2013, 21:41
Размер: 1.46 ГБ
Сидеров: 49
Личеров: 4
Статус: (salma3)
Автор

СообщениеДобавлено: 05 ноя 2013, 21:41 

Не в сети
Зам. Админа
Аватара пользователя
Дата регистрации:
02 дек 2010, 12:39
Спасибо: 12461 / 214
Сообщения: 27968

Страна: Испания, Италия, Франция / Art'Mell, Baleuko S.L., Film Investment Piedmont (FIP)...
Жанр: мультфильм, комедия, приключения
Год выпуска: 2013
Продолжительность: 01:17:13

Перевод: Профессиональный (дублированный)
Cубтитры: нет
Оригинальная аудиодорожка: нет

Режиссер: Франсис Нилсен / Francis Nielsen

Роли озвучивали: Кристина Хьюз, Питер Хадсон, Кэролин Фаллин, Брайан Вермейр, Бобби Джексон

Роли дублировали: Александр Лаенко, Александр Фильченко, Анна Балицкая, Анна Кикас, Василий Марков

Описание: Овечка Блэки — настоящая чума для всей фермы. Она — постоянный нарушитель спокойствия, энергии у нее на десятерых. Она — черная овечка и очень гордится этим, потому что не хочет быть такой, как все. Животные-соседи называют ее «очаровательным бедствием». Иногда они считают Блэки невыносимой, но в конце концов стараются помочь в осуществлении ее безумных фантазий. И сейчас она просто одержима идеей полета на Луну. А о чем мечтает пес Кануто, охраняющий овец? О том, чтобы стать самым великим псом-охранником овец всех времен. Для этого он учится и трудится как проклятый. Он милый и хороший, и все просто обожают его. Ему нравится тишина и покой. И как такой правильный пес мог полюбить такую вздорную овечку? Несмотря на то, что он и слышать ничего не хотел о ракетах, Кануто решил поддержать свою обожаемую Блэки.
В ходе подготовки полета в какие только приключения они не попадут и каких только героев не встретят: корову — оперную певицу, волка — модного дизайнера, пауков-нелегалов, работающих на швейной фабрике, парочку птиц — участников реалити-шоу, овечку Пинки размером с Годзиллу, и главное — компанию собак, у которых уже есть ракета, практически готовая к запуску…



Качество: DVDRip / DVD5 R5
Формат: AVI

Видео: 720x400 (16:9), 25.000 fps, XVID ~2308 kbps avg, 0.320 bit/pixel
Аудио: Русский 48 kHz, AC3, 6 ch, 384.00 kbps Constant

Раздача от:
Общее
Полное имя : Bleki.letit.na.lunu.2013.D.DVDRip_[New-Team]_by_avproh.avi
Формат : AVI
Формат/Информация : Audio Video Interleave
Размер файла : 1,46 Гбайт
Продолжительность : 1 ч. 17 м.
Общий поток : 2701 Кбит/сек
Программа кодирования : VirtualDubMod 1.5.10.3 | http://www.virtualdub-fr.org || (build 2550/release)
Библиотека кодирования : VirtualDubMod build 2550/release

Видео
Идентификатор : 0
Формат : MPEG-4 Visual
Профиль формата : Advanced Simple@L5
Параметр BVOP формата : 1
Параметр QPel формата : Нет
Параметр GMC формата : Без точки перехода
Параметр матрицы формата : Выборочная
Идентификатор кодека : XVID
Идентификатор кодека/Подсказка : XviD
Продолжительность : 1 ч. 17 м.
Битрейт : 2308 Кбит/сек
Ширина : 720 пикселей
Высота : 400 пикселей
Соотношение сторон : 16:9
Частота кадров : 25,000 кадров/сек
Цветовое пространство : YUV
Субдискретизация насыщенности : 4:2:0
Битовая глубина : 8 бит
Тип развёртки : Прогрессивная
Метод сжатия : С потерями
Бит/(Пиксели*Кадры) : 0.320
Размер потока : 1,24 Гбайт (85%)
Библиотека кодирования : XviD 73

Аудио
Идентификатор : 1
Формат : AC-3
Формат/Информация : Audio Coding 3
Расширение режима : CM (complete main)
Параметр Endianness формата : Big
Идентификатор кодека : 2000
Продолжительность : 1 ч. 17 м.
Вид битрейта : Постоянный
Битрейт : 384 Кбит/сек
Каналы : 6 каналов
Расположение каналов : Front: L C R, Side: L R, LFE
Частота : 48,0 КГц
Битовая глубина : 16 бит
Метод сжатия : С потерями
Размер потока : 212 Мбайт (14%)
Выравнивание : Разделение по промежуткам
Продолжительность промежутка : 40 мс. (1,00 видеокадр)
Время предзагрузки промежутка : 500 мс.






реклама партнёра


Вернуться к началу
 Профиль  
 
   Похожие торренты   Автор   Торрент   Размер 
В этой теме нет новых непрочитанных сообщений. Белка и Стрелка: Лунные приключения [мультфильм, комедия, приключения, семейный, 2013] DVD5 [Лицензия]

Dracon

31 | 7

4.34 ГБ

В этой теме нет новых непрочитанных сообщений. Белка и Стрелка: Лунные приключения [мультфильм, комедия, приключения, семейный, 2013] HDRip [Лицензия]

Dracon

371 | 9

1.37 ГБ

В этой теме нет новых непрочитанных сообщений. Белка и Стрелка: Лунные приключения [мультфильм, комедия, приключения, семейный, 2013] BDRip 720p | [Лицензия]

Dracon

430 | 13

2.91 ГБ

В этой теме нет новых непрочитанных сообщений. Белка и Стрелка: Лунные приключения [мультфильм, комедия, приключения, семейный, 2013] BDRip 1080p | [Лицензия]

Dracon

64 | 4

3.88 ГБ

В этой теме нет новых непрочитанных сообщений. Холодное сердце / Frozen [Мультфильм, фэнтези, комедия, приключения, семейный, 2013] BDRip-AVC, Dub+Sub [Лицензия]

Dracon

6262 | 148

1.47 ГБ

В этой теме нет новых непрочитанных сообщений. Холодное сердце / Frozen [Мультфильм, фэнтези, комедия, приключения, семейный, 2013] BDRip 720p, Dub+Sub [Лицензия]

Dracon

1219 | 26

4.37 ГБ

В этой теме нет новых непрочитанных сообщений. Холодное Сердце / Frozen[Мультфильм, фэнтези, комедия, приключения, семейный, 2013] BDRip 1080p, Dub+Sub [Лицензия]

Dracon

667 | 22

5.89 ГБ


Начать новую тему Ответить на тему  [ 1 сообщение ] 




Для Мосгорсуда, Роскомнадзора и рекламодателей:: mosgorsud-torrent[собачка]yandex.ru