Торрент файл
скачать торрент магнет ссылка Добавлен: 29 окт 2013, 21:10
Размер: 1.63 ГБ
Сидеров: 102
Личеров: 11
Автор

СообщениеДобавлено: 29 окт 2013, 21:10 

Не в сети
Зам. Админа
Аватара пользователя
Дата регистрации:
02 дек 2010, 12:39
Спасибо: 12651 / 214
Сообщения: 28010
Страна: Россия
Год выпуска: 2013
Жанр: мультфильм, фэнтези
Продолжительность: 8 серий ~ 13 минут

Субтитры: нет
Оригинальная аудиодорожка: русский

Озвучивали: Брюс - Александр Таньжин, Марго - Ольга Шорохова, Петя - Прохор Чеховской, Кубик - Диомид Виноградов, Шар - Андрей Ярославцев

Режиссеры: Сергей Серегин, Наталья Мальгина, Софья Кравцова, Алексей Бовкун

Описание: Восемь фантастических историй, в которые попадают самые обычные дети - мальчик Петя и девочка Марго.
Они живут в далеком прошлом, в Москве, в знаменитой Сухаревой башне. В те времена здесь находилась лаборатория загадочного магистра - Якова Брюса.
А еще через эту башню можно попасть в волшебные миры, где Петю, Марго и их механического друга Кубика всегда ждут удивительные приключения.








Качество: DVDRip (DVD9 R5)
Формат: AVI

Видео: 720x400 (16:9), 25.000 fps, XViD ~ 2000 kbps avg, 0.278 bit/pixel
Аудио: 48 kHz, АС3 2 ch, 192 kbps, русский

Раздача от:

Общее
Полное имя : Taina.Suharevoy.bashni.2013.O.DVDRip_[Youtracker]_by_avproh1.avi
Формат : AVI
Формат/Информация : Audio Video Interleave
Размер файла : 206 Мбайт
Продолжительность : 13 м.
Общий поток : 2213 Кбит/сек
Программа кодирования : VirtualDubModRus 1.5.10.2 (build 2542/release)
Библиотека кодирования : VirtualDubMod build 2542/release

Видео
Идентификатор : 0
Формат : MPEG-4 Visual
Профиль формата : Advanced Simple@L5
Параметр BVOP формата : 1
Параметр QPel формата : Нет
Параметр GMC формата : Без точки перехода
Параметр матрицы формата : Выборочная
Идентификатор кодека : XVID
Идентификатор кодека/Подсказка : XviD
Продолжительность : 13 м.
Битрейт : 2011 Кбит/сек
Ширина : 720 пикселей
Высота : 400 пикселей
Соотношение сторон : 16:9
Частота кадров : 25,000 кадров/сек
Цветовое пространство : YUV
Субдискретизация насыщенности : 4:2:0
Битовая глубина : 8 бит
Тип развёртки : Прогрессивная
Метод сжатия : С потерями
Бит/(Пиксели*Кадры) : 0.279
Размер потока : 187 Мбайт (91%)
Библиотека кодирования : XviD 73

Аудио
Идентификатор : 1
Формат : AC-3
Формат/Информация : Audio Coding 3
Расширение режима : CM (complete main)
Параметр Endianness формата : Big
Идентификатор кодека : 2000
Продолжительность : 13 м.
Вид битрейта : Постоянный
Битрейт : 192 Кбит/сек
Каналы : 2 канала
Расположение каналов : Front: L R
Частота : 48,0 КГц
Битовая глубина : 16 бит
Метод сжатия : С потерями
Размер потока : 17,9 Мбайт (9%)
Выравнивание : Разделение по промежуткам
Продолжительность промежутка : 40 мс. (1,00 видеокадр)
Время предзагрузки промежутка : 500 мс.



01. Черный Роджер
02. Эликсир жизни
03. Наряд Принцессы ночи
04. Охота на тень
05. Узурпатор времени
06. Морской узел
07. Сон государев
08. Время назад



Вернуться к началу
 Профиль  
 
   Похожие торренты   Автор   Торрент   Размер 
В этой теме нет новых непрочитанных сообщений. Тайна Коко / Coco [Мультфильм, мюзикл, фэнтези, 2017] BDRip, Dub [Лицензия]

salma3

0 | 0

1.46 ГБ

В этой теме нет новых непрочитанных сообщений. Тайна Коко / Coco [мультфильм, фэнтези, комедия, 2017] Blu-Ray EUR 1080p, Dub [Лицензия]

salma3

0 | 0

35.94 ГБ

В этой теме нет новых непрочитанных сообщений. Тайна Коко 3D / Coco 3D [мультфильм, фэнтези, комедия, 2017] Blu-Ray EUR 1080p, Dub [Лицензия] [3D-Video]

salma3

0 | 0

37.48 ГБ

В этой теме нет новых непрочитанных сообщений. Тайна Коко / Coco [Мультфильм, мюзикл, фэнтези, 2017] BDRemux 2160p, Dub [Лицензия]

salma3

10 | 4

39.78 ГБ

В этой теме нет новых непрочитанных сообщений. Тайна Коко / Coco [Мультфильм, мюзикл, фэнтези, 2017] BDRip, Dub [Tunes]

salma3

4258 | 120

1.41 ГБ

В этой теме нет новых непрочитанных сообщений. Тайна Коко / Coco [Мультфильм, мюзикл, фэнтези, 2017] WEB-DLRip, Mvo [GreenРай Studio]

salma3

4 | 2

1.37 ГБ

В этой теме нет новых непрочитанных сообщений. Тайна Коко / Coco [Мультфильм, мюзикл, фэнтези, 2017] BDRemux 2160p, Dub [Tunes] [4K]

salma3

0 | 1

39.59 ГБ


Начать новую тему Ответить на тему  [ 1 сообщение ] 




Для Мосгорсуда, Роскомнадзора и рекламодателей:: mosgorsud-torrent[собачка]yandex.ru
cron