Торрент файл
скачать торрент магнет ссылка Добавлен: 28 окт 2013, 21:37
Размер: 7.14 ГБ
Сидеров: 1
Личеров: 3
Автор

СообщениеДобавлено: 28 окт 2013, 21:37 

Не в сети
Супермодератор
Аватара пользователя
Дата регистрации:
15 фев 2012, 16:44
Возраст: 27
Спасибо: 5121 / 2089
Сообщения: 17282
Год выхода: 1994
Жанр: Мультфильм, фэнтези, мелодрама
Режиссер: Пиксоут Хант, Джо Джонстон
В ролях: Маколей Калкин, Кристофер Ллойд, Мел Харрис, Патрик Стюарт, Вупи Голдберг, Эд Бегли, Алексис Киршнер, Брэндон С. МакКэй, Стефен Шиэн, Фрэнк Уэлкер, Леонард Нимой, Ричард Эрдман, Роберт Пикардо, Фил Хартман

О фильме:
Прекрасное сочетание актерского кино и мультипликации! Десятилетний пессимист Ричард Тайлер (давно всем известный малолетний ветеран экрана Маколэй Калкин) строит свою жизнь основываясь на статистике и боится практически всего на свете. Его родители пытались развить в сыне храбрость, но их попытки принесли мало пользы. Как-то раз, пытаясь спастись от ливня с грозой, забегает в первое попавшееся на пути здание, которое оказывается библиотекой. В этой библиотеке может произойти любое чудо. Теперь этот мальчик, превратившись в мультяшку, вместе со своими любимыми героями книг, отправляется в увлекательное мультипликационное путешествие, где сказочный Повелитель Страниц (Кристофер Ллойд в роли библиотекаря), пронесет его по просторам волшебной страны, научит оказывать помощь другим и преодолевать любые трудности на своем пути!..

Страна: США / 20th Century Fox Film Corporation, Turner Pictures (I)
Продолжительность: 01:15:28
Перевод: Профессиональный многоголосый, авторский одноголосый

Файл
Кодек: x264
Качество: BDRip 720p
Видео: MPEG-4 AVC, 8200 Кбит/с, 1280x688, 23.976 кадр/с
Аудио #1: Русский (AC3, 6 ch, 448 Кбит/с) / Профессиональный многоголосый
Аудио #2: Русский (DTS, 6 ch, 1510 Кбит/с) / Авторский одноголосый (Ю. Сербин)
Аудио #3: Русский (DTS, 6 ch, 1510 Кбит/с) / Авторский одноголосый ( С. Визгунов)
Аудио #4: Русский (AC3, 2 ch, 192 Кбит/с) / Авторский одноголосый (В. Дохалов)
Аудио #5: Русский (AC3, 2 ch, 192 Кбит/с) / Авторский одноголосый ( А. Пронин)
Аудио #6: Английский (DTS, 6 ch, 1510 Кбит/с)
Субтитры: Русские, английские

Семпл

---[Information] [27.10.2013 6:31:34] x264 [info]: frame I:752 Avg QP:16.86 size:157349
---[Information] [27.10.2013 6:31:34] x264 [info]: frame P:24679 Avg QP:18.37 size: 70103
---[Information] [27.10.2013 6:31:34] x264 [info]: frame B:83141 Avg QP:20.39 size: 33486
Format : Matroska
Format version : Version 4 / Version 2
File size : 7.14 GiB
Duration : 1h 15mn
Overall bit rate : 13.5 Mbps
Movie name : -=MediaClub-Odessit=-
Encoded date : UTC 2013-10-28 11:23:44
Writing application : mkvmerge v6.2.0 ('Promised Land') built on Apr 28 2013 12:22:01
Writing library : libebml v1.3.0 + libmatroska v1.4.0

Video
ID : 1
Format : AVC
Format/Info : Advanced Video Codec
Format profile : High@L4.1
Format settings, CABAC : Yes
Format settings, ReFrames : 9 frames
Codec ID : V_MPEG4/ISO/AVC
Duration : 1h 15mn
Bit rate : 8 200 Kbps
Width : 1 280 pixels
Height : 688 pixels
Display aspect ratio : 1.860
Frame rate : 23.976 fps
Color space : YUV
Chroma subsampling : 4:2:0
Bit depth : 8 bits
Scan type : Progressive
Bits/(Pixel*Frame) : 0.388
Stream size : 4.17 GiB (58%)
Writing library : x264 core 133 r2334 a3ac64b
Encoding settings : cabac=1 / ref=9 / deblock=1:-3:-3 / analyse=0x3:0x133 / me=umh / subme=11 / psy=1 / psy_rd=1.00:0.20 / mixed_ref=1 / me_range=48 / chroma_me=1 / trellis=2 / 8x8dct=1 / cqm=0 / deadzone=21,11 / fast_pskip=0 / chroma_qp_offset=-3 / threads=6 / lookahead_threads=1 / sliced_threads=0 / nr=0 / decimate=0 / interlaced=0 / bluray_compat=0 / constrained_intra=0 / bframes=9 / b_pyramid=2 / b_adapt=2 / b_bias=0 / direct=3 / weightb=1 / open_gop=0 / weightp=2 / keyint=240 / keyint_min=23 / scenecut=40 / intra_refresh=0 / rc=2pass / mbtree=0 / bitrate=8200 / ratetol=1.0 / qcomp=0.60 / qpmin=0 / qpmax=69 / qpstep=4 / cplxblur=20.0 / qblur=0.5 / ip_ratio=1.40 / pb_ratio=1.30 / aq=1:1.00
Language : English

Audio #1
ID : 2
Format : AC-3
Format/Info : Audio Coding 3
Mode extension : CM (complete main)
Codec ID : A_AC3
Duration : 1h 15mn
Bit rate mode : Constant
Bit rate : 448 Kbps
Channel(s) : 6 channels
Channel positions : Front: L C R, Side: L R, LFE
Sampling rate : 48.0 KHz
Bit depth : 16 bits
Compression mode : Lossy
Stream size : 242 MiB (3%)
Title : |Многоголосый закадровый|
Language : Russian

Audio #2
ID : 3
Format : DTS
Format/Info : Digital Theater Systems
Codec ID : A_DTS
Duration : 1h 15mn
Bit rate mode : Constant
Bit rate : 1 510 Kbps
Channel(s) : 6 channels
Channel positions : Front: L C R, Side: L R, LFE
Sampling rate : 48.0 KHz
Bit depth : 24 bits
Compression mode : Lossy
Stream size : 815 MiB (11%)
Title : |Одноголосый закадровый, Ю. Сербин|
Language : Russian

Audio #3
ID : 4
Format : DTS
Format/Info : Digital Theater Systems
Codec ID : A_DTS
Duration : 1h 15mn
Bit rate mode : Constant
Bit rate : 1 510 Kbps
Channel(s) : 6 channels
Channel positions : Front: L C R, Side: L R, LFE
Sampling rate : 48.0 KHz
Bit depth : 24 bits
Compression mode : Lossy
Stream size : 815 MiB (11%)
Title : |Одноголосый закадровый, С. Визгунов|
Language : Russian

Audio #4
ID : 5
Format : AC-3
Format/Info : Audio Coding 3
Mode extension : CM (complete main)
Codec ID : A_AC3
Duration : 1h 15mn
Bit rate mode : Constant
Bit rate : 192 Kbps
Channel(s) : 2 channels
Channel positions : Front: L R
Sampling rate : 48.0 KHz
Bit depth : 16 bits
Compression mode : Lossy
Stream size : 104 MiB (1%)
Title : |Одноголосый закадровый, В. Дохалов|
Language : Russian

Audio #5
ID : 6
Format : AC-3
Format/Info : Audio Coding 3
Mode extension : CM (complete main)
Codec ID : A_AC3
Duration : 1h 15mn
Bit rate mode : Constant
Bit rate : 192 Kbps
Channel(s) : 2 channels
Channel positions : Front: L R
Sampling rate : 48.0 KHz
Bit depth : 16 bits
Compression mode : Lossy
Stream size : 104 MiB (1%)
Title : |Одноголосый закадровый, А. Пронин|
Language : Russian

Audio #6
ID : 7
Format : DTS
Format/Info : Digital Theater Systems
Codec ID : A_DTS
Duration : 1h 15mn
Bit rate mode : Constant
Bit rate : 1 510 Kbps
Channel(s) : 6 channels
Channel positions : Front: L C R, Side: L R, LFE
Sampling rate : 48.0 KHz
Bit depth : 24 bits
Compression mode : Lossy
Stream size : 815 MiB (11%)
Title : English
Language : English

Text #1
ID : 8
Format : UTF-8
Codec ID : S_TEXT/UTF8
Codec ID/Info : UTF-8 Plain Text
Language : Russian

Text #2
ID : 9
Format : UTF-8
Codec ID : S_TEXT/UTF8
Codec ID/Info : UTF-8 Plain Text
Language : English


Релиз от:




реклама партнёра


Вернуться к началу
 Профиль Отправить личное сообщение  
 
   Похожие торренты   Автор   Торрент   Размер 
В этой теме нет новых непрочитанных сообщений. Мертвая Зона / The Dead Zone [Драма, фэнтези, триллер, экранизация, 1983] BDRip 720p, Mvo+Dvo+4Avo+Sub

salma3

61 | 4

7.94 ГБ

В этой теме нет новых непрочитанных сообщений. Вам письмо / You've Got Mail [Драма, мелодрама, комедия, 1998] BDRip 720p, Dub+4Avo+Sub

salma3

15 | 4

7.99 ГБ

В этой теме нет новых непрочитанных сообщений. Тутси / Tootsie [драма, мелодрама, комедия, 1982] BDRip 720p, Dub+4Mvo+4Avo+Dvo+Sub

salma3

45 | 5

12.68 ГБ

В этой теме нет новых непрочитанных сообщений. Тарзан / Tarzan [мультфильм, драма, мелодрама, 1999] Blu-Ray Remux, Dub+4Avo+Sub

salma3

12 | 22

30.17 ГБ

В этой теме нет новых непрочитанных сообщений. Горец / Highlander [фэнтези, боевик, драма, приключения, 1986] BDRip 1080p, 2Mvo+4Avo+Sub

salma3

60 | 10

17.87 ГБ

В этой теме нет новых непрочитанных сообщений. Битлджус / Beetle Juice [Фэнтези, комедия, 1988] BDRip 1080p, Dub+2Mvo+3Dvo+4Avo+Sub

salma3

19 | 5

11.38 ГБ

В этой теме нет новых непрочитанных сообщений. Гайвер / Guyver [Фантастика, боевик, комедия, 1991] BDRip 720p, 4Avo+Sub

salma3

79 | 3

4.89 ГБ


Начать новую тему Ответить на тему  [ 1 сообщение ] 




Для Мосгорсуда, Роскомнадзора и рекламодателей:: mosgorsud-torrent[собачка]yandex.ru