Торрент файл
скачать торрент магнет ссылка Добавлен: 28 окт 2013, 15:11
Размер: 3.39 ГБ
Сидеров: 2
Личеров: 5
Автор

СообщениеДобавлено: 28 окт 2013, 15:11 

Не в сети
Зам. Админа
Аватара пользователя
Дата регистрации:
02 дек 2010, 12:39
Спасибо: 12460 / 214
Сообщения: 27968
Жанр: ужасы, боевик, мультфильм
Год выпуска: 2012
Режиссёр: Джастин Пол Риттер
В ролях: Маршал Хилтон, Ли Перкинс, Мария Олсен, Конро Брукс, Макс Молион, Бен Л. МакКейн, Райан МакГайверн, Майкл Виллар, Клодин Клаудио

О фильме:
Познакомьтесь с Джоном Ромеро, разлагающимся трупом, наделенным совестью и раскаянием, который в порыве первого голода инфицировал собственную жену и убил свою маленькую дочь. Но теперь упрямому пожирателю мозгов придется с боем прорываться через зловещих демонов ада, чтобы спасти своего уцелевшего сына от ужасов мира живых. Приготовьтесь к приключению, полному отрывания рук и хруста плоти, основанному на инди-комиксах Кена Хейзера и База Хэссона.


Выпущено: США
Продолжительность: 01:27:53
Озвучивание: Любительское (одноголосое) [ХихиДок]

Формат: MKV
Качество: BDRip 720p [ROVERS]
Видео: 4693 kb/s, 1280х720
Дополнительно: Сохранены оригинальные чаптеры как на Blu Ray
Размер: 3.39 GB
Скачать: Сэмпл

Релиз группы:


General
The.Amazing.Adventures.of.the.Living.Corpse.2012.Blu.Ray.720p.CINEMANIA.mkv
Format : Matroska
Format version : Version 4 / Version 2
File size : 3.39 GiB
Duration : 1h 27mn
Overall bit rate : 5 526 Kbps
Movie name : CINEMANIA.CC
Encoded date : UTC 2013-10-25 18:09:17
Writing application : mkvmerge v6.5.0 ('Isn't she lovely') built on Oct 20 2013 12:50:05
Writing library : libebml v1.3.0 + libmatroska v1.4.1

Video
ID : 1
Format : AVC
Format/Info : Advanced Video Codec
Format profile : High@L4.1
Format settings, CABAC : Yes
Format settings, ReFrames : 5 frames
Codec ID : V_MPEG4/ISO/AVC
Duration : 1h 27mn
Bit rate : 4 693 Kbps
Width : 1 280 pixels
Height : 720 pixels
Display aspect ratio : 16:9
Frame rate mode : Constant
Frame rate : 23.976 fps
Color space : YUV
Chroma subsampling : 4:2:0
Bit depth : 8 bits
Scan type : Progressive
Bits/(Pixel*Frame) : 0.212
Stream size : 2.81 GiB (83%)
Title : CINEMANIA.CC
Writing library : x264 core 133 r2334 a3ac64b
Encoding settings : cabac=1 / ref=5 / deblock=1:0:0 / analyse=0x3:0x133 / me=umh / subme=7 / psy=1 / psy_rd=1.00:0.00 / mixed_ref=1 / me_range=16 / chroma_me=1 / trellis=1 / 8x8dct=1 / cqm=0 / deadzone=21,11 / fast_pskip=0 / chroma_qp_offset=-2 / threads=36 / lookahead_threads=5 / sliced_threads=0 / nr=0 / decimate=1 / interlaced=0 / bluray_compat=0 / constrained_intra=0 / bframes=3 / b_pyramid=2 / b_adapt=1 / b_bias=0 / direct=1 / weightb=1 / open_gop=0 / weightp=2 / keyint=250 / keyint_min=23 / scenecut=40 / intra_refresh=0 / rc_lookahead=40 / rc=2pass / mbtree=1 / bitrate=4693 / ratetol=1.0 / qcomp=0.60 / qpmin=0 / qpmax=69 / qpstep=4 / cplxblur=20.0 / qblur=0.5 / ip_ratio=1.40 / aq=1:1.00
Language : English
Default : Yes
Forced : No

Audio #1
ID : 2
Format : AC-3
Format/Info : Audio Coding 3
Mode extension : CM (complete main)
Format settings, Endianness : Big
Codec ID : A_AC3
Duration : 1h 27mn
Bit rate mode : Constant
Bit rate : 192 Kbps
Channel(s) : 2 channels
Channel positions : Front: L R
Sampling rate : 44.1 KHz
Bit depth : 16 bits
Compression mode : Lossy
Stream size : 121 MiB (3%)
Title : ХиХиДок
Language : Russian
Default : Yes
Forced : Yes

Audio #2
ID : 3
Format : AC-3
Format/Info : Audio Coding 3
Mode extension : CM (complete main)
Format settings, Endianness : Big
Codec ID : A_AC3
Duration : 1h 27mn
Bit rate mode : Constant
Bit rate : 640 Kbps
Channel(s) : 6 channels
Channel positions : Front: L C R, Side: L R, LFE
Sampling rate : 48.0 KHz
Bit depth : 16 bits
Compression mode : Lossy
Stream size : 402 MiB (12%)
Language : English
Default : No
Forced : No

Menu
00:00:00.000 : en:00:00:00.000
00:05:21.821 : en:00:05:21.821
00:11:26.102 : en:00:11:26.102
00:19:07.063 : en:00:19:07.063
00:31:40.774 : en:00:31:40.774
00:42:13.489 : en:00:42:13.489
00:49:47.902 : en:00:49:47.902
00:54:42.404 : en:00:54:42.404
01:01:10.208 : en:01:01:10.208
01:08:42.452 : en:01:08:42.452
01:18:22.114 : en:01:18:22.114
01:24:48.333 : en:01:24:48.333




реклама партнёра


Вернуться к началу
 Профиль  
 
   Похожие торренты   Автор   Торрент   Размер 
В этой теме нет новых непрочитанных сообщений. Living Corpse - And Everything Slips Away [2012, Metalcore,Deathcore,Groove Metal,Electronic, MP3]

PriZraK

0 | 1

87.68 МБ

В этой теме нет новых непрочитанных сообщений. Новый Человек-паук / The Amazing Spider-Man [фантастика, боевик, приключения, 2012] BDRip, Avo [Гаврилов]

salma3

23 | 3

1.46 ГБ

В этой теме нет новых непрочитанных сообщений. Новый Человек-паук: Высокое напряжение / The Amazing Spider-Man 2: Rise of Electro [фэнтези, боевик, приключения, 2014] BDRip 720p, Dub+Sub [iTunes]

Dracon

539 | 24

7.07 ГБ

В этой теме нет новых непрочитанных сообщений. Новый Человек-паук: Высокое напряжение / The Amazing Spider-Man 2: Rise of Electro [фэнтези, боевик, приключения, 2014] BDRip 720p, Dub+Sub [Лицензия]

Dracon

177 | 8

4.03 ГБ

В этой теме нет новых непрочитанных сообщений. Среди живущих / Aux yeux des vivants / Among the Living [Ужасы, Триллер, 2014] BDRip 720p, avo

Dracon

67 | 6

4.49 ГБ

В этой теме нет новых непрочитанных сообщений. Город живых мертвецов / City of the Living Dead [ужасы, 1980] BDRip 720p, Mvo+3Avo+Sub

salma3

43 | 4

4.24 ГБ

В этой теме нет новых непрочитанных сообщений. Мимесис. Ночь живых мертвецов / Mimesis: Night of the Living Dead [Ужасы, 2011] BDRip 720p, dvo

Dracon

9 | 3

4.59 ГБ


Начать новую тему Ответить на тему  [ 1 сообщение ] 




Для Мосгорсуда, Роскомнадзора и рекламодателей:: mosgorsud-torrent[собачка]yandex.ru