Торрент файл
скачать торрент магнет ссылка Добавлен: 12 окт 2013, 05:37
Размер: 6.26 ГБ
Сидеров: 196
Личеров: 21
Статус: (Dracon)
Автор

СообщениеДобавлено: 12 окт 2013, 22:52 

Не в сети
Зам. Админа
Аватара пользователя
Дата регистрации:
02 дек 2010, 12:39
Спасибо: 12461 / 214
Сообщения: 27968
Год выхода: 2013
Жанр: мультфильм, комедия, криминал, семейный
Режиссер: Пьер Соффин, Крис Рено
В ролях: Стив Карелл, Кен Жонг, Кристен Уиг, Миранда Косгров, Мойзес Ариас, Бенджамин Брэтт, Стив Куган, Расселл Брэнд, Элси Фишер, Дэна Гайер

О фильме:
В то время как Грю, бывший суперзлодей, приспосабливается к семейной жизни и пытается честным трудом зарабатывать в сфере бизнеса, тайные лаборатории Арктики оказываются украденными. Анти-Злодейская лига решает, что она нуждается в помощи Грю и его новобранцев в расследовании.


Официальный сайт

Страна: США
Студия: Illumination Entertainment
Продолжительность: 01:37:58
Перевод: Дублированный (Лицензия)

Формат: MKV
Качество: BDRip 1080p (VeDeTT)
Видео: MPEG-4 AVC, 6481 Кбит/с, 1920x1040, 23.976 кадр/с
Аудио 1: Русский (АС3, 2 ch, 192 Кбит/с)
Аудио 2: Aнглийский (DTS, 6 ch, 1510 Кбит/с)
Субтитры: Aнглийские
Дополнительно: Cохранены оригинальные чаптеры как на Blu-ray

Общее
Уникальный идентификатор : 208203532648303804927150027335253474289 (0x9CA28AB3C3303CD8BB7C573328FDBBF1)
Полное имя : C:\1\Despicable.Me.2.2013.1080p.BluRay.x264.RoSubbed-VeDeTT\Gadk1y.Ya.2.2013.D.BDRip.1080p.mkv
Формат : Matroska
Версия формата : Version 2
Размер файла : 6,26 Гбайт
Продолжительность : 1 ч. 37 м.
Общий поток : 9143 Кбит/сек
Дата кодирования : UTC 2013-10-19 08:56:05
Программа кодирования : mkvmerge v6.3.0 ('You can't stop me!') built on Jun 28 2013 20:09:41
Библиотека кодирования : libebml v1.3.0 + libmatroska v1.4.0

Видео
Идентификатор : 1
Формат : AVC
Формат/Информация : Advanced Video Codec
Профиль формата : High@L4.1
Параметр CABAC формата : Да
Параметр ReFrames формата : 4 кадра
Идентификатор кодека : V_MPEG4/ISO/AVC
Продолжительность : 1 ч. 37 м.
Битрейт : 6481 Кбит/сек
Ширина : 1920 пикселей
Высота : 1040 пикселей
Соотношение сторон : 1,85:1
Режим частоты кадров : Постоянный
Частота кадров : 23,976 кадра/сек
Цветовое пространство : YUV
Субдискретизация насыщенности : 4:2:0
Битовая глубина : 8 бит
Тип развёртки : Прогрессивная
Бит/(Пиксели*Кадры) : 0.135
Размер потока : 4,31 Гбайт (69%)
Библиотека кодирования : x264 core 135 r2345 f0c1c53
Настройки программы : cabac=1 / ref=4 / deblock=1:0:0 / analyse=0x3:0x133 / me=umh / subme=7 / psy=1 / psy_rd=1.00:0.00 / mixed_ref=1 / me_range=16 / chroma_me=1 / trellis=1 / 8x8dct=1 / cqm=0 / deadzone=21,11 / fast_pskip=0 / chroma_qp_offset=-2 / threads=6 / lookahead_threads=1 / sliced_threads=0 / nr=0 / decimate=1 / interlaced=0 / bluray_compat=0 / constrained_intra=0 / bframes=3 / b_pyramid=2 / b_adapt=2 / b_bias=0 / direct=3 / weightb=1 / open_gop=0 / weightp=2 / keyint=250 / keyint_min=23 / scenecut=40 / intra_refresh=0 / rc_lookahead=50 / rc=2pass / mbtree=1 / bitrate=6481 / ratetol=1.0 / qcomp=0.60 / qpmin=0 / qpmax=69 / qpstep=4 / cplxblur=20.0 / qblur=0.5 / ip_ratio=1.40 / aq=1:1.00
Язык : English
Default : Да
Forced : Да

Аудио #1
Идентификатор : 2
Формат : AC-3
Формат/Информация : Audio Coding 3
Расширение режима : CM (complete main)
Параметр Endianness формата : Big
Идентификатор кодека : A_AC3
Продолжительность : 1 ч. 37 м.
Вид битрейта : Постоянный
Битрейт : 384 Кбит/сек
Каналы : 6 каналов
Расположение каналов : Front: L C R, Side: L R, LFE
Частота : 48,0 КГц
Битовая глубина : 16 бит
Метод сжатия : С потерями
Размер потока : 269 Мбайт (4%)
Язык : Russian
Default : Да
Forced : Нет

Аудио #2
Идентификатор : 3
Формат : DTS
Формат/Информация : Digital Theater Systems
Режим : 16
Параметр Endianness формата : Big
Идентификатор кодека : A_DTS
Продолжительность : 1 ч. 37 м.
Вид битрейта : Постоянный
Битрейт : 768 Кбит/сек
Каналы : 6 каналов
Расположение каналов : Front: L C R, Side: L R, LFE
Частота : 48,0 КГц
Битовая глубина : 24 бит
Метод сжатия : С потерями
Размер потока : 538 Мбайт (8%)
Язык : Russian
Default : Нет
Forced : Нет

Аудио #3
Идентификатор : 4
Формат : DTS
Формат/Информация : Digital Theater Systems
Режим : 16
Параметр Endianness формата : Big
Идентификатор кодека : A_DTS
Продолжительность : 1 ч. 37 м.
Вид битрейта : Постоянный
Битрейт : 1509 Кбит/сек
Каналы : 6 каналов
Расположение каналов : Front: L C R, Side: L R, LFE
Частота : 48,0 КГц
Битовая глубина : 24 бит
Метод сжатия : С потерями
Размер потока : 1,03 Гбайт (17%)
Язык : English
Default : Нет
Forced : Да

Текст
Идентификатор : 5
Формат : UTF-8
Идентификатор кодека : S_TEXT/UTF8
Идентификатор кодека/Информация : UTF-8 Plain Text
Заголовок : Romanian
Язык : Romanian
Default : Да
Forced : Нет

Меню
00:00:00.000 : en:00:00:00.000
00:03:22.994 : en:00:03:22.994
00:08:04.734 : en:00:08:04.734
00:15:50.867 : en:00:15:50.867
00:18:28.232 : en:00:18:28.232
00:24:36.892 : en:00:24:36.892
00:30:50.724 : en:00:30:50.724
00:34:40.704 : en:00:34:40.704
00:40:48.279 : en:00:40:48.279
00:46:26.200 : en:00:46:26.200
00:51:23.122 : en:00:51:23.122
00:56:27.426 : en:00:56:27.426
01:00:00.472 : en:01:00:00.472
01:03:27.053 : en:01:03:27.053
01:08:44.078 : en:01:08:44.078
01:14:01.979 : en:01:14:01.979
01:18:08.058 : en:01:18:08.058
01:22:33.907 : en:01:22:33.907
01:27:09.099 : en:01:27:09.099
01:30:33.720 : en:01:30:33.720









реклама партнёра


Вернуться к началу
 Профиль  
 
   Похожие торренты   Автор   Торрент   Размер 
В этой теме нет новых непрочитанных сообщений. Гадкий я 2 / Despicable Me 2 [Мультфильм, Комедия, Криминал, Семейный, 2013] BDRip-AVC, Dub [Лицензия]

Dracon

12 | 6

1.45 ГБ

В этой теме нет новых непрочитанных сообщений. Самолеты / Planes [Мультфильм, комедия, семейный, полнометражный, 2013] BDRip 1080p, Dub+Sub [Лицензия]

salma3

22 | 2

6.93 ГБ

В этой теме нет новых непрочитанных сообщений. Спасти Санту / Saving Santa [мультфильм, мюзикл, комедия, семейный, 2013] BDRip 1080p, Dub [Лицензия]

Dracon

0 | 2

4.59 ГБ

В этой теме нет новых непрочитанных сообщений. Холодное Сердце / Frozen[Мультфильм, фэнтези, комедия, приключения, семейный, 2013] BDRip 1080p, Dub+Sub [Лицензия]

Dracon

667 | 22

5.89 ГБ

В этой теме нет новых непрочитанных сообщений. Холодное сердце / Frozen [Мультфильм, фэнтези, комедия, приключения, семейный, 2013] BDRip 1080p, Dub+Sub [Лицензия | 3D-Video]

Dracon

436 | 24

6.23 ГБ

В этой теме нет новых непрочитанных сообщений. Облачно... 2: Месть ГМО / Cloudy with a Chance of Meatballs 2 [Мультфильм, фантастика, комедия, семейный, 2013] BDRip 1080p, dub [Лицензия | 3D-Video]

Dracon

61 | 6

7.01 ГБ

В этой теме нет новых непрочитанных сообщений. Облачно, возможны осадки: Месть ГМО / Cloudy 2: Revenge of the Leftovers [Мультфильм, Фантастика, Комедия, Семейный, 2013] BDRip 1080p, Dub+Sub [Лицензия]

Dracon

242 | 13

8.33 ГБ


Начать новую тему Ответить на тему  [ 1 сообщение ] 




Для Мосгорсуда, Роскомнадзора и рекламодателей:: mosgorsud-torrent[собачка]yandex.ru