Торрент файл
скачать торрент магнет ссылка Добавлен: 15 окт 2013, 08:00
Размер: 1.46 ГБ
Сидеров: 19
Личеров: 8
Автор

СообщениеДобавлено: 15 окт 2013, 08:00 

Не в сети
Зам. Админа
Аватара пользователя
Дата регистрации:
02 дек 2010, 12:39
Спасибо: 12461 / 214
Сообщения: 27968
Страна: Италия, Бельгия, Франция, Люксембург / 2d3D Animations, Cometa Film...
Жанр: мультфильм, фэнтези
Год выпуска: 2012
Продолжительность: 01:20:32

Перевод: профессиональный (многоголосый, закадровый)
Оригинальная аудиодорожка: английский
Cубтитры: русский

Режиссер: Энцо Д’Ало / Enzo D'Alò

Роли озвучивали: Роберт Нэйлор, Рокко Папалео, Паоло Руффини

b]Описание[/b]: Однажды безоблачной ночью старый Джепетто замечтался, глядя в небеса на сверкающие звезды. Он загадал желание, чтобы вырезанный из дерева мальчик Пиноккио ожил и стал ему настоящим сыном, о котором он мечтал всю свою жизнь. И его желание, наконец, сбылось. Поучительную сказку про Пиноккио знают дети и взрослые всего мира. Маленький деревянный человечек заставил поверить людей в чудеса и доказал, что добро всегда побеждает, а мечты сбываются, нужно только сильно верить в это.






Качество: HDRip / P1nocch1o.2012.iTALiAN.DTS.HDMA.720p.BluRay.x264-AT0MiC.mkv + DVD9 R5
Формат: AVI

Видео: 720x384 (1.85:1), 24.000 fps, XVID ~2031 kbps avg, 0.306 bit/pixel
Аудио: Русский 48 kHz, AC3, 6 ch, 448.00 kbps Constant

Раздача от:
Общее
Полное имя : Pinokkio.2012.P.HDRip_[Youtracker]_by_avproh.avi
Формат : AVI
Формат/Информация : Audio Video Interleave
Размер файла : 1,46 Гбайт
Продолжительность : 1 ч. 23 м.
Общий поток : 2489 Кбит/сек
Программа кодирования : VirtualDubModRus 1.5.10.2 (build 2542/release)
Библиотека кодирования : VirtualDubMod build 2542/release

Видео
Идентификатор : 0
Формат : MPEG-4 Visual
Профиль формата : Advanced Simple@L5
Параметр BVOP формата : 1
Параметр QPel формата : Нет
Параметр GMC формата : Без точки перехода
Параметр матрицы формата : Выборочная
Идентификатор кодека : XVID
Идентификатор кодека/Подсказка : XviD
Продолжительность : 1 ч. 23 м.
Битрейт : 2031 Кбит/сек
Ширина : 720 пикселей
Высота : 384 пикселя
Соотношение сторон : 1,85:1
Частота кадров : 24,000 кадра/сек
Цветовое пространство : YUV
Субдискретизация насыщенности : 4:2:0
Битовая глубина : 8 бит
Тип развёртки : Прогрессивная
Метод сжатия : С потерями
Бит/(Пиксели*Кадры) : 0.306
Размер потока : 1,19 Гбайт (82%)
Библиотека кодирования : XviD 73

Аудио
Идентификатор : 1
Формат : AC-3
Формат/Информация : Audio Coding 3
Расширение режима : CM (complete main)
Параметр Endianness формата : Big
Идентификатор кодека : 2000
Продолжительность : 1 ч. 23 м.
Вид битрейта : Постоянный
Битрейт : 448 Кбит/сек
Каналы : 6 каналов
Расположение каналов : Front: L C R, Side: L R, LFE
Частота : 48,0 КГц
Битовая глубина : 16 бит
Метод сжатия : С потерями
Размер потока : 269 Мбайт (18%)
Выравнивание : Разделение по промежуткам
Продолжительность промежутка : 42 мс. (1,00 видеокадр)
Время предзагрузки промежутка : 500 мс.






реклама партнёра


Вернуться к началу
 Профиль  
 
   Похожие торренты   Автор   Торрент   Размер 
В этой теме нет новых непрочитанных сообщений. Семейка вампиров / Die Vampirschwestern [фэнтези, драма, комедия, приключения, семейный, 2012] HDRip, Dub [Лицензия]

Dracon

211 | 8

1.46 ГБ

В этой теме нет новых непрочитанных сообщений. Путешествие к Рождественской звезде / Reisen til julestjernen [фэнтези, приключения, семейный, 2012] HDRip, Mvo [Лицензия]

Dracon

1251 | 34

1.38 ГБ

В этой теме нет новых непрочитанных сообщений. Как приручить дракона 2 / How to Train Your Dragon 2 [мультфильм, фэнтези, комедия, приключения, семейный, 2014] HDRip, Dub [лицензия]

Dracon

249 | 9

1.37 ГБ

В этой теме нет новых непрочитанных сообщений. Лего. Фильм / The Lego Movie [мультфильм, фэнтези, комедия, приключения, семейный, 2014] HDRip, Dub [Лицензия]

Dracon

810 | 27

2.05 ГБ

В этой теме нет новых непрочитанных сообщений. Ночь в музее: Секрет гробницы / Night at the Museum: Secret of the Tomb (Шон Леви) [Фэнтези, комедия, приключения, семейный, 2015] HDRip, Dub [Лицензия]

Dracon

120 | 10

1.41 ГБ

В этой теме нет новых непрочитанных сообщений. Пэн: Путешествие в Нетландию / Pan (Джо Райт) [фэнтези, семейный, приключения, 2015] HDRip, Dub [Лицензия]

Dracon

149 | 15

1.46 ГБ

В этой теме нет новых непрочитанных сообщений. Пит и его дракон / Pete's Dragon [фэнтези, приключения, семейный, 2016] HDRip, Dub [лицензия]

salma3

334 | 12

2.05 ГБ


Начать новую тему Ответить на тему  [ 1 сообщение ] 




Для Мосгорсуда, Роскомнадзора и рекламодателей:: mosgorsud-torrent[собачка]yandex.ru