Торрент файл
скачать торрент магнет ссылка Добавлен: 19 сен 2013, 13:22
Размер: 1.37 ГБ
Сидеров: 24
Личеров: 4
Статус: (salma3)
Автор

СообщениеДобавлено: 19 сен 2013, 13:22 

Не в сети
Супермодератор
Аватара пользователя
Дата регистрации:
15 фев 2012, 16:44
Возраст: 27
Спасибо: 5139 / 2089
Сообщения: 17423

Информация о фильме
Название: Возвращение короля
Оригинальное название: The Return of the King
Год выхода: 1980
Жанр: мультфильм, фэнтези, приключения
Режиссер: Джулз Басс, Артур Ранкин мл.
В ролях: Орсон Бин, Теодор Бикел, Уильям Конрад, Джон Хьюстон, Родди МакДауэлл, Брава Теодор, Пол Фрис, Дон Мессик, Джон Стефенсон, Кэйси Касэм

О фильме:
К стенам Королевского города стекаются несметные войска Повелителя Тьмы. Король-призрак ведет чудовищную армию — тролли и орки, гоблины и назгулы идут на штурм города. Насмерть стоят бесстрашные защитники, все длится и длится кровавый бой… А в горах Мордора Фродо и Сэмми, томясь от жажды и голода, прячась от вездесущих врагов, все ближе и ближе подступают к жерлу Огненной горы…


Страна: США
Студия: Topcraft, Rankin/Bass Productions
Продолжительность: 01:37:00
Перевод: Авторский (одноголосый закадровый) [С. Визгунов]

Файл
Кодек: XviD
Качество: DVDRip
Видео: 720x400, 1785 Kbps, 23.976 fps, 0,259 Bits/(Pixel*Frame)
Звук: AC3, 48 kHz, 224 kbps, 2 ch
Субтитры: Нет


General
Complete name : G:Vozvraschenie.Korolja.1980.DVDRip.avi
Format : AVI
Format/Info : Audio Video Interleave
File size : 1.37 GiB
Duration : 1h 37mn
Overall bit rate : 2 017 Kbps

Video
ID : 0
Format : MPEG-4 Visual
Format profile : Advanced Simple@L5
Format settings, BVOP : 2
Format settings, QPel : No
Format settings, GMC : No warppoints
Format settings, Matrix : Default (H.263)
Codec ID : XVID
Codec ID/Hint : XviD
Duration : 1h 37mn
Bit rate : 1 785 Kbps
Width : 720 pixels
Height : 400 pixels
Display aspect ratio : 16:9
Frame rate : 23.976 fps
Color space : YUV
Chroma subsampling : 4:2:0
Bit depth : 8 bits
Scan type : Progressive
Compression mode : Lossy
Bits/(Pixel*Frame) : 0.259
Stream size : 1.21 GiB (89%)
Writing library : XviD 1.2.1 (UTC 2008-12-04)

Audio
ID : 1
Format : AC-3
Format/Info : Audio Coding 3
Mode extension : CM (complete main)
Format settings, Endianness : Big
Codec ID : 2000
Duration : 1h 37mn
Bit rate mode : Constant
Bit rate : 224 Kbps
Channel count : 2 channels
Channel positions : Front: L R
Sampling rate : 48.0 KHz
Bit depth : 16 bits
Compression mode : Lossy
Stream size : 155 MiB (11%)
Alignment : Aligned on interleaves
Interleave, duration : 64 ms (1.53 video frames)
Interleave, preload duration : 192 ms
Title : VTS_01_1 T81 2_0ch 192Kbps DELAY 0ms_new


Релиз от: Автор рипа: _Bathory_




реклама партнёра


Вернуться к началу
 Профиль Отправить личное сообщение  
 
   Похожие торренты   Автор   Торрент   Размер 
В этой теме нет новых непрочитанных сообщений. Конг: Возвращение в джунгли / Kong: Return To The Jungle [Мультфильм, приключения, семейный, 2006] DVDRip-AVC, Dub [Лицензия]

salma3

2 | 4

1.37 ГБ

В этой теме нет новых непрочитанных сообщений. Во имя короля 3 / In the Name of the King III [фэнтези, боевик, драма, приключения, 2014] BDRip, Mvo [Перец]

salma3

293 | 58

1.45 ГБ

В этой теме нет новых непрочитанных сообщений. Возвращение Мерлина / Merlin: The return [Фэнтези, 1999] DVDRip, Mvo

salma3

35 | 3

1.36 ГБ

В этой теме нет новых непрочитанных сообщений. Аладдин-2. Возвращение Джафара / The Return of Jafar [Полнометражный мультфильм, комедия, 1994] DVDRip, Dub [КПК]

salma3

90 | 4

227.62 МБ

В этой теме нет новых непрочитанных сообщений. Страж-лев: Возвращение Рыка / The Lion Guard: Return of the Roar (Хауи Паркинс) [мультфильм, семейный, приключения, 2015] WEB-DLRip, dub [Чистый звук]

Dracon

2282 | 148

698.22 МБ

В этой теме нет новых непрочитанных сообщений. Возвращение в Затерянный мир / Return to the Lost World [фантастика, приключения, 1992] DVDRip-AVC, Mvo+Sub

salma3

17 | 2

1.46 ГБ

В этой теме нет новых непрочитанных сообщений. Гвардейцы короля / The King's Guard [приключения, 2000] SATRip, Mvo

salma3

22 | 5

1.38 ГБ


Начать новую тему Ответить на тему  [ 1 сообщение ] 




Для Мосгорсуда, Роскомнадзора и рекламодателей:: mosgorsud-torrent[собачка]yandex.ru