Торрент файл
скачать торрент магнет ссылка Добавлен: 14 сен 2013, 17:17
Размер: 10.86 ГБ
Сидеров: 17
Личеров: 3
Автор

СообщениеДобавлено: 14 сен 2013, 17:17 

Не в сети
Зам. Админа
Аватара пользователя
Дата регистрации:
02 дек 2010, 12:39
Спасибо: 12460 / 214
Сообщения: 27968


Год выпуска: 2013
Жанр: Комедия, мультфильм, приключения, семейный, полнометражный
Выпущено: США, Dream Works Animation
Режиссер: Крис Сандерс, Кирк де Микко
В ролях: Эмма Стоун, Райан Рейнольдс, Николас Кейдж, Кэтрин Кинер, Клорис Личмен, Кларк Дьюк, Крис Сандерс

О фильме: Чего только не сделаешь ради сохранения семьи, несмотря на то, что она доисторическая! Вот и мужественный глава семейства был твёрдо уверен - главное не позволять никогда и ничего менять и всегда жить "как в каменном веке" - по своим привычным правилам, в своей известной вдоль и поперёк пещере! И может, всё бы так и было бы, но однажды землетрясение нарушает привычный жизненный уклад и вынуждает срочно искать другую, неизвестную пока, пещеру, в непонятном и переменчивом мире, полном страшных опасностей и разных незнакомцев всех видов и мастей! Будет ли той семейке и на новом месте веселее вместе и что поможет ей выжить и достичь заветной цели?

Качество: BDRip (1080p)
Видео: MPEG-4 AVC, 12.3 Мбит/с, 1920x816
Аудио: Русский (AC3, 6 ch, 448 Кбит/с), (DTS, 6 ch, 1510 Кбит/с), английский (DTS, 6 ch, 1510 Кбит/с)
Размер: 10.86 ГБ
Продолжительность: 01:38:37
Перевод: Дублированный

Общее
Уникальный идентификатор : 198999366714832798866456130900083716454 (0x95B5E2490A87FB2AA0FD58A31599B166)
Полное имя : C:UsersAdministratorDesktopSemejka.Kruds.2013.D.BDRip.1080.mkv
Формат : Matroska
Версия формата : Version 2
Размер файла : 10,9 Гбайт
Продолжительность : 1 ч. 38 м.
Общий поток : 15,8 Мбит/сек
Дата кодирования : UTC 2013-09-14 12:35:32
Программа кодирования : mkvmerge v6.3.0 ('You can't stop me!') built on Jun 28 2013 20:09:41
Библиотека кодирования : libebml v1.3.0 + libmatroska v1.4.0

Видео
Идентификатор : 1
Формат : AVC
Формат/Информация : Advanced Video Codec
Профиль формата : High@L4.1
Параметр CABAC формата : Да
Параметр ReFrames формата : 5 кадров
Идентификатор кодека : V_MPEG4/ISO/AVC
Продолжительность : 1 ч. 38 м.
Битрейт : 12,3 Мбит/сек
Ширина : 1920 пикселей
Высота : 816 пикселей
Соотношение сторон : 2,35:1
Режим частоты кадров : Постоянный
Частота кадров : 23,976 кадра/сек
Цветовое пространство : YUV
Субдискретизация насыщенности : 4:2:0
Битовая глубина : 8 бит
Тип развёртки : Прогрессивная
Бит/(Пиксели*Кадры) : 0.327
Размер потока : 8,26 Гбайт (76%)
Библиотека кодирования : x264 core 136 r2348+704+51 d1baef6 tMod [8-bit@4:2:0 X86_64]
Настройки программы : cabac=1 / ref=5 / deblock=1:-1:-1 / analyse=0x3:0x113 / me=umh / subme=11 / psy=1 / fade_compensate=0.00 / psy_rd=1.00:0.00 / mixed_ref=1 / me_range=48 / chroma_me=1 / trellis=2 / 8x8dct=1 / cqm=0 / deadzone=21,11 / fast_pskip=0 / chroma_qp_offset=-2 / threads=18 / lookahead_threads=3 / sliced_threads=0 / nr=0 / decimate=0 / interlaced=0 / bluray_compat=0 / constrained_intra=0 / fgo=0 / bframes=8 / b_pyramid=2 / b_adapt=2 / b_bias=0 / direct=3 / weightb=1 / open_gop=0 / weightp=2 / keyint=240 / keyint_min=24 / scenecut=40 / intra_refresh=0 / rc=2pass / mbtree=0 / bitrate=12300 / ratetol=1.0 / qcomp=0.70 / qpmin=0:0:0 / qpmax=69:69:69 / qpstep=4 / cplxblur=20.0 / qblur=0.5 / ip_ratio=1.15 / pb_ratio=1.15 / aq=4:1.10 / aq-sensitivity=10.00 / aq-factor=1.00:1.00:1.00 / aq2=0 / aq3=0
Язык : English
Default : Да
Forced : Нет

Аудио #1
Идентификатор : 2
Формат : DTS
Формат/Информация : Digital Theater Systems
Режим : 16
Параметр Endianness формата : Big
Идентификатор кодека : A_DTS
Продолжительность : 1 ч. 38 м.
Вид битрейта : Постоянный
Битрейт : 1509 Кбит/сек
Каналы : 6 каналов
Расположение каналов : Front: L C R, Side: L R, LFE
Частота : 48,0 КГц
Битовая глубина : 16 бит
Метод сжатия : С потерями
Размер потока : 1,04 Гбайт (10%)
Язык : Russian
Default : Да
Forced : Нет

Аудио #2
Идентификатор : 3
Формат : AC-3
Формат/Информация : Audio Coding 3
Расширение режима : CM (complete main)
Параметр Endianness формата : Big
Идентификатор кодека : A_AC3
Продолжительность : 1 ч. 38 м.
Вид битрейта : Постоянный
Битрейт : 448 Кбит/сек
Каналы : 6 каналов
Расположение каналов : Front: L C R, Side: L R, LFE
Частота : 48,0 КГц
Битовая глубина : 16 бит
Метод сжатия : С потерями
Размер потока : 316 Мбайт (3%)
Язык : Russian
Default : Нет
Forced : Нет

Аудио #3
Идентификатор : 4
Формат : DTS
Формат/Информация : Digital Theater Systems
Режим : 16
Параметр Endianness формата : Big
Идентификатор кодека : A_DTS
Продолжительность : 1 ч. 38 м.
Вид битрейта : Постоянный
Битрейт : 1509 Кбит/сек
Каналы : 6 каналов
Расположение каналов : Front: L C R, Side: L R, LFE
Частота : 48,0 КГц
Битовая глубина : 24 бит
Метод сжатия : С потерями
Размер потока : 1,04 Гбайт (10%)
Язык : English
Default : Нет
Forced : Нет








реклама партнёра


Вернуться к началу
 Профиль  
 
   Похожие торренты   Автор   Торрент   Размер 
В этой теме нет новых непрочитанных сообщений. Семейка Крудс / The Croods [Мультфильм, 2013] DVD5, Dub+Sub [Сжатый]

salma3

13 | 6

4.31 ГБ

В этой теме нет новых непрочитанных сообщений. Семейка Крудс. Начало / Dawn of the Croods [1 сезон 1-13 серии из 13] [мультфильм, семейный, 2015] WEBRip [NewStudio]

Dracon

87 | 28

3.91 ГБ

В этой теме нет новых непрочитанных сообщений. Семейка монстров / The Boxtroll [мультфильм, фэнтези, комедия, приключения, семейный, 2014] BDRip 1080p, Dub [3D-Video | iTunes]

Dracon

29 | 6

8.33 ГБ

В этой теме нет новых непрочитанных сообщений. Семейка монстров / The Boxtrolls (Грэхэм Эннэйбл, Энтони Стакки) [2014, Комедия, мультфильм, приключения, семейный, BDRip 1080p | iTunes]

Nickolas3435

380 | 21

7.63 ГБ

В этой теме нет новых непрочитанных сообщений. Семейка монстров / The Boxtroll [мультфильм, фэнтези, комедия, приключения, семейный, 2014] WEB-DL 1080p, Dub [iTunes]

Dracon

16 | 2

3.71 ГБ

В этой теме нет новых непрочитанных сообщений. Семейка монстров / The Boxtrolls [мультфильм, фэнтези, комедия, приключения, семейный, 2014] BDRip 720p, Dub [iTunes]

Dracon

16 | 3

4.72 ГБ

В этой теме нет новых непрочитанных сообщений. Белка и Стрелка: Лунные приключения [мультфильм, комедия, приключения, семейный, 2013] BDRip 1080p | [Лицензия]

Dracon

64 | 4

3.88 ГБ


Начать новую тему Ответить на тему  [ 1 сообщение ] 




Для Мосгорсуда, Роскомнадзора и рекламодателей:: mosgorsud-torrent[собачка]yandex.ru