Торрент файл
скачать торрент магнет ссылка Добавлен: 13 сен 2013, 21:27
Размер: 744.95 МБ
Сидеров: 173
Личеров: 10
Статус: (salma3)
Автор

СообщениеДобавлено: 13 сен 2013, 21:27 

Не в сети
Зам. Админа
Аватара пользователя
Дата регистрации:
02 дек 2010, 12:39
Спасибо: 12460 / 214
Сообщения: 27968

Страна: Великобритания, Германия
Жанр: мультфильм, семейный
Год выпуска: 2011
Продолжительность: 00:52:46

Перевод: Профессиональный (дублированный)
Оригинальная аудиодорожка: нет
Cубтитры: нет

Режиссер: Йоханнес Вейланд / Johannes Weiland, Уве Хеидсшоттер / Uwe Heidschötter

Роли озвучивали: Хелена Бонем Картер, Роб Брайдон, Робби Колтрейн, Джеймс Корден, Джон Хёрт, Том Уилкинсон, Ширли Хендерсон, Фиби Гиврон-Тейлор, Сэм Льюис

Описание: Волшебная история про маленького мышонка, который гулял по лесу. На его пути встают три хищника, которые мечтают ее съесть — сова, лиса и змея. Маленькому мышонку предстоит использовать все свое остроумие и смекалку, чтобы выжить.





Качество: DVDRip / DVD5 R5
Формат: AVI

Видео: 720x400 (16:9), 25.000 fps, XVID ~1836 kbps avg, 0.255 bit/pixel
Аудио: Русский 48 kHz, MP3, 2 ch, 128.00 kbps Constant

Раздача от:
General
Complete name : Gruffalo.2011.D.DVDRip.745MB_[Youtracker]_by_avproh.avi
Format : AVI
Format/Info : Audio Video Interleave
File size : 745 MiB
Duration : 52mn 46s
Overall bit rate : 1 973 Kbps
Writing application : VirtualDubModRus 1.5.10.2 (build 2542/release)
Writing library : VirtualDubMod build 2542/release

Video
ID : 0
Format : MPEG-4 Visual
Format profile : Advanced Simple@L5
Format settings, BVOP : 1
Format settings, QPel : No
Format settings, GMC : No warppoints
Format settings, Matrix : Custom
Codec ID : XVID
Codec ID/Hint : XviD
Duration : 52mn 46s
Bit rate : 1 836 Kbps
Width : 720 pixels
Height : 400 pixels
Display aspect ratio : 16:9
Frame rate : 25.000 fps
Color space : YUV
Chroma subsampling : 4:2:0
Bit depth : 8 bits
Scan type : Progressive
Compression mode : Lossy
Bits/(Pixel*Frame) : 0.255
Stream size : 693 MiB (93%)
Writing library : XviD 73

Audio
ID : 1
Format : MPEG Audio
Format version : Version 1
Format profile : Layer 3
Mode : Joint stereo
Mode extension : MS Stereo
Codec ID : 55
Codec ID/Hint : MP3
Duration : 52mn 46s
Bit rate mode : Constant
Bit rate : 128 Kbps
Channel count : 2 channels
Sampling rate : 48.0 KHz
Compression mode : Lossy
Stream size : 48.3 MiB (6%)
Alignment : Aligned on interleaves
Interleave, duration : 40 ms (1.00 video frame)
Interleave, preload duration : 504 ms






реклама партнёра


Вернуться к началу
 Профиль  
 
   Похожие торренты   Автор   Торрент   Размер 
В этой теме нет новых непрочитанных сообщений. Дух живого леса / Espiritu del bosque [мультфильм, семейный, 2008] DVDRip, Dub [Лицензия]

salma3

140 | 11

1.46 ГБ

В этой теме нет новых непрочитанных сообщений. Приключения мышонка / Rodencia y el Diente de la Princesa [мультфильм, семейный, 2013] DVDRip, Dub [лицензия]

Dracon

4 | 2

1.37 ГБ

В этой теме нет новых непрочитанных сообщений. Конг: Возвращение в джунгли / Kong: Return To The Jungle [Мультфильм, приключения, семейный, 2006] DVDRip-AVC, Dub [Лицензия]

salma3

2 | 4

1.37 ГБ

В этой теме нет новых непрочитанных сообщений. Том и Джерри: Большие гонки / Tom and Jerry's Greatest Chases [01 - 70 из 70] [мультфильм, комедия, семейный, 1941-1958] DVDRip, Mvo+Sub [лицензия]

salma3

18 | 12

7.61 ГБ

В этой теме нет новых непрочитанных сообщений. Том и Джерри: Большие гонки / Tom and Jerry's Greatest Chases [01 - 70 из 70] [мультфильм, комедия, семейный, 1941-1958] DVDRip-AVC, Mvo+Sub [лицензия]

salma3

30 | 2

7.7 ГБ

В этой теме нет новых непрочитанных сообщений. Олли и сокровища пиратов / Dive Olly Dive and the Pirate Treasure [мультфильм, семейный, детский, 2014] DVDRip, Dub [лицензия]

Dracon

767 | 24

1.46 ГБ

В этой теме нет новых непрочитанных сообщений. Рио 2 / Rio 2 [Мультфильм, комедия, приключения, семейный, 2014] BDRip, Dub [Лицензия]

Dracon

309 | 6

2.05 ГБ


Начать новую тему Ответить на тему  [ 1 сообщение ] 




Для Мосгорсуда, Роскомнадзора и рекламодателей:: mosgorsud-torrent[собачка]yandex.ru