Торрент файл
скачать торрент магнет ссылка Добавлен: 25 авг 2013, 14:54
Размер: 7.94 ГБ
Сидеров: 74
Личеров: 5
Автор

СообщениеДобавлено: 25 авг 2013, 14:54 

Не в сети
Зам. Админа
Аватара пользователя
Дата регистрации:
02 дек 2010, 12:39
Спасибо: 12461 / 214
Сообщения: 27968


Год выхода: 2012
Жанр: мультфильм, фантастика, боевик
Режиссер: Синдзи Арамаки
В ролях: Leraldo Anzaldua, Luci Christian, Melissa Davis, Justin Doran, David Matranga, Emily Neves, David Wald

О фильме

После того, как был покинут отдаленный форпост Федерации, Форт Кейси, Карл Дженкинс отправляется на разведку и исчезает в туманности. Закаленные во множественных боях солдаты могут своими действиями принести на Землю смерть человечества, а могут и наоборот его спасти. Третьего не дано.

Дополнительно

Выпущено: Stage 6 Films
Продолжительность: 01:28:48
Перевод: Профессиональный (многоголосый, закадровый) (лицензия)

Качество: BDRip 1080p (исходник Blu-ray Disc)
Видео: 1920х1080, 11.9 Mbps, 23.976 кадр/сек, AVC, x264, 2.35, 0.240 Бит/(Пиксели*Кадры)
Аудио1: AC-3, 448 Кбит/сек, 6 канала(ов), 48,0 КГц |MVO|
Аудио2: AC-3, 448 Кбит/сек, 6 канала(ов), 48,0 КГц |English|
Чаптеры: Есть
Размер: 7.95 Гб



Format : Matroska
Format version : Version 4 / Version 2
File size : 7.94 GiB
Duration : 1h 28mn
Overall bit rate : 12.8 Mbps
Movie name : Звездный десант Вторжение.(2012).BDRip1080p.от.[NoLimits-Team].[mitrian]
Encoded date : UTC 2013-07-17 15:01:00
Writing application : mkvmerge v6.2.0 ('Promised Land') built on Apr 28 2013 12:22:01
Writing library : libebml v1.3.0 + libmatroska v1.4.0

Video
ID : 1
Format : AVC
Format/Info : Advanced Video Codec
Format profile : High@L4.1
Format settings, CABAC : Yes
Format settings, ReFrames : 4 frames
Codec ID : V_MPEG4/ISO/AVC
Duration : 1h 28mn
Bit rate : 11.9 Mbps
Width : 1 920 pixels
Height : 1 080 pixels
Display aspect ratio : 16:9
Frame rate mode : Constant
Frame rate : 23.976 fps
Color space : YUV
Chroma subsampling : 4:2:0
Bit depth : 8 bits
Scan type : Progressive
Bits/(Pixel*Frame) : 0.240
Stream size : 7.23 GiB (91%)
Title : Звездный десант Вторжение (2012) BDRip 1080p от NoLimits-Team
Writing library : x264 core 133 r2334 a3ac64b
Encoding settings : cabac=1 / ref=4 / deblock=1:0:0 / analyse=0x3:0x113 / me=umh / subme=10 / psy=1 / psy_rd=1.00:0.10 / mixed_ref=1 / me_range=32 / chroma_me=1 / trellis=2 / 8x8dct=1 / cqm=0 / deadzone=21,11 / fast_pskip=0 / chroma_qp_offset=-3 / threads=6 / lookahead_threads=1 / sliced_threads=0 / slices=4 / nr=0 / decimate=1 / interlaced=0 / bluray_compat=0 / constrained_intra=0 / bframes=5 / b_pyramid=2 / b_adapt=2 / b_bias=0 / direct=3 / weightb=1 / open_gop=0 / weightp=2 / keyint=240 / keyint_min=24 / scenecut=40 / intra_refresh=0 / rc_lookahead=60 / rc=2pass / mbtree=1 / bitrate=11922 / ratetol=2.0 / qcomp=0.60 / qpmin=0 / qpmax=51 / qpstep=4 / cplxblur=20.0 / qblur=0.5 / ip_ratio=1.40 / aq=1:1.00
Language : English
Default : Yes
Forced : No

Audio #1
ID : 2
Format : AC-3
Format/Info : Audio Coding 3
Mode extension : CM (complete main)
Format settings, Endianness : Big
Codec ID : A_AC3
Duration : 1h 28mn
Bit rate mode : Constant
Bit rate : 448 Kbps
Channel(s) : 6 channels
Channel positions : Front: L C R, Side: L R, LFE
Sampling rate : 48.0 KHz
Bit depth : 16 bits
Compression mode : Lossy
Stream size : 285 MiB (3%)
Language : Russian
Default : Yes
Forced : No

Audio #2
ID : 3
Format : AC-3
Format/Info : Audio Coding 3
Mode extension : CM (complete main)
Format settings, Endianness : Big
Codec ID : A_AC3
Duration : 1h 28mn
Bit rate mode : Constant
Bit rate : 448 Kbps
Channel(s) : 6 channels
Channel positions : Front: L C R, Side: L R, LFE
Sampling rate : 48.0 KHz
Bit depth : 16 bits
Compression mode : Lossy
Stream size : 285 MiB (3%)
Language : English
Default : No
Forced : No

Text
ID : 4
Format : UTF-8
Codec ID : S_TEXT/UTF8
Codec ID/Info : UTF-8 Plain Text
Language : Russian
Default : Yes
Forced : No

Menu
00:00:00.000 : en:00:00:00.000
00:10:00.000 : en:00:10:00.000
00:20:00.000 : en:00:20:00.000
00:30:00.000 : en:00:30:00.000
00:40:00.000 : en:00:40:00.000
00:50:00.000 : en:00:50:00.000
01:00:00.000 : en:01:00:00.000
01:10:00.000 : en:01:10:00.000
01:20:00.000 : en:01:20:00.000






Релиз Группа | Автор Рипа: |




реклама партнёра


Вернуться к началу
 Профиль  
 
   Похожие торренты   Автор   Торрент   Размер 
В этой теме нет новых непрочитанных сообщений. Звездный десант 3: Мародер / Starship Troopers 3: Marauder [фантастика, боевик, приключения, 2008] BDRip 1080p, Mvo

salma3

38 | 5

11.64 ГБ

В этой теме нет новых непрочитанных сообщений. Звездный десант 3: Мародер / Starship Troopers 3: Marauder [фантастика, боевик, приключения, 2008] BDRip 720p, Mvo+SUB

salma3

73 | 8

5.52 ГБ

В этой теме нет новых непрочитанных сообщений. Вторжение в Розуэлл / Сдохни! / Invasion Roswell / Exterminators / Battle: Earth [фантастика, боевик, 2013] BDRip 1080p, Dvo

salma3

178 | 20

7.04 ГБ

В этой теме нет новых непрочитанных сообщений. Вторжение в США / Invasion U.S.A. [Боевик, 1985] BDRip 1080p, Mvo+Dvo+Avo+Sub

salma3

50 | 64

12.75 ГБ

В этой теме нет новых непрочитанных сообщений. Сдохни! / Вторжение в Росвелл / Invasion Roswell [фантастика, боевик, 2013] BDRip 720p, Mvo

Dracon

269 | 4

3.39 ГБ

В этой теме нет новых непрочитанных сообщений. Звездный крейсер: Восстание / Starship: Rising [Фантастика, Боевик, 2014] DVDRip, avo

Dracon

45 | 2

1.41 ГБ

В этой теме нет новых непрочитанных сообщений. Звёздный крейсер: Апокалипсис / Starship: Apocalypse [Фантастика, боевик, 2014] WEB-DLRip, Dvo

salma3

297 | 9

1.37 ГБ


Начать новую тему Ответить на тему  [ 1 сообщение ] 




Для Мосгорсуда, Роскомнадзора и рекламодателей:: mosgorsud-torrent[собачка]yandex.ru