Торрент файл
скачать торрент магнет ссылка Добавлен: 19 авг 2013, 11:15
Размер: 3.15 ГБ
Сидеров: 834
Личеров: 38
Автор

СообщениеДобавлено: 19 авг 2013, 11:15 

Не в сети
Зам. Админа
Аватара пользователя
Дата регистрации:
02 дек 2010, 12:39
Спасибо: 12461 / 214
Сообщения: 27968
Страна: СССР-Россия
Жанр: мультфильм, комедия, семейный
Год выпуска: 1969 – 2006
Продолжительность: серия ~ 00:09:30

Перевод: не требуется
Оригинальная аудиодорожка: русский
Cубтитры: нет

Режиссеры: Вячеслав Котеночкин, Юрий Бутырин, Владимир Тарасов...

Роли озвучивали: Клара Румянова, Анатолий Папанов, Геннадий Хазанов, Владимир Сошальский, Игорь Христенко

Описание:
Веселые приключения неразлучной парочки — хулигана Волка и смышленого Зайца. Любимые с детства сцены погонь, ссор и примирений, шутки и мелодии...






Исходник: Blu-ray 1080p (серии 01-16)
Исходник: DVD5 R5 (серии 17-20)
Тип релиза: BDRip (серии 01-16)
Тип релиза: DVDRip (серии 17-20)
Контейнер: AVI

Видео: 720х544, (4:3), 25 fps, XviD ~ 1799 kbps, 0.184 bit/pixel
Аудио: 48 kHz, AC3, 6 ch, 448.00 kbps (серии 01-16)
Аудио: 48 kHz, AC3, 2 ch, 192.00 kbps (серии 17-20)

Раздача от:
BDRip
Общее
Полное имя : Nu,pogodi!1969-2006.BDRip_[Youtracker]_by_AVP Studio\09.avi
Формат : AVI
Формат/Информация : Audio Video Interleave
Размер файла : 151 Мбайт
Продолжительность : 9 м. 22 с.
Общий поток : 2256 Кбит/сек
Программа кодирования : VirtualDubModRus 1.5.10.2 (build 2542/release)
Библиотека кодирования : VirtualDubMod build 2542/release

Видео
Идентификатор : 0
Формат : MPEG-4 Visual
Профиль формата : Advanced Simple@L5
Параметр BVOP формата : 1
Параметр QPel формата : Нет
Параметр GMC формата : Без точки перехода
Параметр матрицы формата : Выборочная
Идентификатор кодека : XVID
Идентификатор кодека/Подсказка : XviD
Продолжительность : 9 м. 22 с.
Битрейт : 1799 Кбит/сек
Ширина : 720 пикселей
Высота : 544 пикселя
Соотношение сторон : 4:3
Частота кадров : 25,000 кадров/сек
Цветовое пространство : YUV
Субдискретизация насыщенности : 4:2:0
Битовая глубина : 8 бит
Тип развёртки : Прогрессивная
Метод сжатия : С потерями
Бит/(Пиксели*Кадры) : 0.184
Размер потока : 121 Мбайт (80%)
Библиотека кодирования : XviD 65

Аудио
Идентификатор : 1
Формат : AC-3
Формат/Информация : Audio Coding 3
Расширение режима : CM (complete main)
Идентификатор кодека : 2000
Продолжительность : 9 м. 22 с.
Вид битрейта : Постоянный
Битрейт : 448 Кбит/сек
Каналы : 6 каналов
Расположение каналов : Front: L C R, Side: L R, LFE
Частота : 48,0 КГц
Битовая глубина : 16 бит
Метод сжатия : С потерями
Размер потока : 30,1 Мбайт (20%)
Выравнивание : Разделение по промежуткам
Продолжительность промежутка : 40 мс. (1,00 видеокадр)
Время предзагрузки промежутка : 500 мс

DVDRip
Общее
Полное имя : Nu,pogodi!1969-2006.BDRip_[Youtracker]_by_AVP Studio19.avi
Формат : AVI
Формат/Информация : Audio Video Interleave
Размер файла : 156 Мбайт
Продолжительность : 10 м.
Общий поток : 2001 Кбит/сек
Программа кодирования : VirtualDubModRus 1.5.10.2 (build 2542/release)
Библиотека кодирования : VirtualDubMod build 2542/release

Видео
Идентификатор : 0
Формат : MPEG-4 Visual
Профиль формата : Advanced Simple@L5
Параметр BVOP формата : 1
Параметр QPel формата : Нет
Параметр GMC формата : Без точки перехода
Параметр матрицы формата : Выборочная
Идентификатор кодека : XVID
Идентификатор кодека/Подсказка : XviD
Продолжительность : 10 м.
Битрейт : 1799 Кбит/сек
Ширина : 720 пикселей
Высота : 544 пикселя
Соотношение сторон : 4:3
Частота кадров : 25,000 кадров/сек
Цветовое пространство : YUV
Субдискретизация насыщенности : 4:2:0
Битовая глубина : 8 бит
Тип развёртки : Прогрессивная
Метод сжатия : С потерями
Бит/(Пиксели*Кадры) : 0.184
Размер потока : 140 Мбайт (90%)
Библиотека кодирования : XviD 65

Аудио
Идентификатор : 1
Формат : AC-3
Формат/Информация : Audio Coding 3
Расширение режима : CM (complete main)
Идентификатор кодека : 2000
Продолжительность : 10 м.
Вид битрейта : Постоянный
Битрейт : 192 Кбит/сек
Каналы : 2 канала
Расположение каналов : Front: L R
Частота : 48,0 КГц
Битовая глубина : 16 бит
Метод сжатия : С потерями
Размер потока : 15,0 Мбайт (10%)
Выравнивание : Разделение по промежуткам
Продолжительность промежутка : 40 мс. (1,00 видеокадр)
Время предзагрузки промежутка : 500 мс

BDRip

DVDRip





реклама партнёра


Вернуться к началу
 Профиль  
 
   Похожие торренты   Автор   Торрент   Размер 
В этой теме нет новых непрочитанных сообщений. Ну погоди! [01-25 из 25] (Вячеслав Котёночкин, Юрий Бутырин, Владимир Тарасов...) [1969-2006, мультфильм, комедия, семейный, приключения, DVD5]

Nickolas3435

696 | 58

4.36 ГБ

В этой теме нет новых непрочитанных сообщений. В мире животных / Creature Comforts [S01-02] [мультфильм, комедия, семейный, 2003-2006] DVDRip, Mvo

salma3

95 | 41

2.52 ГБ

В этой теме нет новых непрочитанных сообщений. Круг чистой воды / Ring of Bright Water [драма, комедия, семейный, 1969] DVDRip, Avo+Sub

salma3

12 | 4

1.47 ГБ

В этой теме нет новых непрочитанных сообщений. Рио 2 / Rio 2 [Мультфильм, комедия, приключения, семейный, 2014] BDRip, Dub [Лицензия]

Dracon

309 | 6

2.05 ГБ

В этой теме нет новых непрочитанных сообщений. Приключения мышонка Переса / El raton Perez / The Hairy Tooth Fair [мультфильм, комедия, семейный, 2006] HDRip, Mvo

salma3

15 | 3

1.46 ГБ

В этой теме нет новых непрочитанных сообщений. Рио 2 / Rio 2 [Мультфильм, комедия, приключения, семейный, 2014] BDRip 720p, Dub [iTunes]

Dracon

340 | 14

4.64 ГБ

В этой теме нет новых непрочитанных сообщений. Конг: Возвращение в джунгли / Kong: Return To The Jungle [Мультфильм, приключения, семейный, 2006] DVDRip-AVC, Dub [Лицензия]

salma3

2 | 4

1.37 ГБ


Начать новую тему Ответить на тему  [ 1 сообщение ] 




Для Мосгорсуда, Роскомнадзора и рекламодателей:: mosgorsud-torrent[собачка]yandex.ru