Торрент файл
скачать торрент магнет ссылка Добавлен: 10 авг 2013, 13:21
Размер: 6.57 ГБ
Сидеров: 93
Личеров: 7
Автор

СообщениеДобавлено: 10 авг 2013, 13:21 

Не в сети
Зам. Админа
Аватара пользователя
Дата регистрации:
02 дек 2010, 12:39
Спасибо: 12623 / 214
Сообщения: 28012


Год выхода: 2013
Жанр: Мультфильм, фэнтези, приключения, комедия, семейный
Режиссер: Крис Уэдж
В ролях: Джош Хатчерсон, Аманда Сайфред, Колин Фаррелл, Джейсон Судейкис, Азиз Ансари, Бейонсе Ноулз, Джонни Ноксвилл, Джуда Фридлендер, Блейк Андерсон, Кристоф Вальц, Стивен Тайлер, Питбулл, Джейсон Харрис, Эмма Кинни

О фильме:
После долгой разлуки юная Мэри Кэтрин возвращается в дом, где отшельником живет ее отец, безумный профессор Бомба. Однако тот совсем не обращает внимания на дочь и одержим лишь одной идеей — изучить скрытый от посторонних глаз таинственный лесной мир. Девушка отказывается верить, что под ногами человечества идет вечная борьба между армиями, воюющими на сторонах добра и зла. Чудесным образом Мэри Кэтрин уменьшается в размерах и знакомится с маленькими воинами. Теперь от нее зависит спасение не только волшебного лесного, но и реального человеческого мира…

Официальный сайт

Страна: США
Студия: 20th Century Fox Animation, Blue Sky Studios
Продолжительность: 01:42:29
Перевод: Дублированный (iTunes Russia)

Кодек: MPEG-4 AVC
Качество: 1080p
Видео: 1920x800, 7106 Кбит/с, 23.976 кадр/с
Звук:
Русский (AC3, 6 ch, 384 Кбит/с)
Английский (DTS, 6 ch, 1510 Кбит/с)
Субтитры: Английские
Семпл
Epic.2013.D.BDRip.1080p.mkv
Format : Matroska
Format version : Version 2
File size : 6.57 GiB
Duration : 1h 42mn
Overall bit rate : 9 182 Kbps
Movie name : Epic.2013.Repack.BluRay.1080p.DTS.x264-HDWinG
Encoded date : UTC 2013-08-10 08:20:39
Writing application : mkvmerge v4.0.0 ('The Stars were mine') сборка от Jun 6 2010 16:18:42
Writing library : libebml v1.0.0 + libmatroska v1.0.0

Video
ID : 1
Format : AVC
Format/Info : Advanced Video Codec
Format profile : High@L4.1
Format settings, CABAC : Yes
Format settings, ReFrames : 5 frames
Codec ID : V_MPEG4/ISO/AVC
Duration : 1h 42mn
Bit rate : 7 106 Kbps
Width : 1 920 pixels
Height : 800 pixels
Display aspect ratio : 2.40:1
Frame rate : 23.976 fps
Color space : YUV
Chroma subsampling : 4:2:0
Bit depth : 8 bits
Scan type : Progressive
Bits/(Pixel*Frame) : 0.193
Stream size : 5.09 GiB (77%)
Title : Epic.2013.Repack.BluRay.1080p.DTS.x264-HDWinG
Writing library : x264 core 132 r2323+704+51 d571b1c tMod [8-bit@4:2:0 X86_64]
Encoding settings : cabac=1 / ref=5 / deblock=1:-3:-3 / analyse=0x3:0x133 / me=umh / subme=11 / psy=1 / fade_compensate=0.00 / psy_rd=1.01:0.00 / mixed_ref=1 / me_range=32 / chroma_me=1 / trellis=2 / 8x8dct=1 / cqm=0 / deadzone=21,11 / fast_pskip=0 / chroma_qp_offset=-2 / threads=36 / lookahead_threads=6 / sliced_threads=0 / nr=0 / decimate=0 / interlaced=0 / bluray_compat=0 / constrained_intra=0 / fgo=0 / bframes=8 / b_pyramid=2 / b_adapt=2 / b_bias=0 / direct=3 / weightb=1 / open_gop=0 / weightp=2 / keyint=240 / keyint_min=24 / scenecut=40 / intra_refresh=0 / rc_lookahead=240 / rc=crf / mbtree=1 / crf=17.5000 / qcomp=0.70 / qpmin=0 / qpmax=69 / qpstep=4 / ip_ratio=1.20 / aq=4:0.95 / aq-sensitivity=10.00 / aq-factor=1.00:1.00:1.00 / aq2=0 / aq3=0
Language : English
Default : No
Forced : Yes

Audio #1
ID : 2
Format : AC-3
Format/Info : Audio Coding 3
Mode extension : CM (complete main)
Format settings, Endianness : Big
Codec ID : A_AC3
Duration : 1h 42mn
Bit rate mode : Constant
Bit rate : 384 Kbps
Channel(s) : 6 channels
Channel positions : Front: L C R, Side: L R, LFE
Sampling rate : 48.0 KHz
Bit depth : 16 bits
Compression mode : Lossy
Stream size : 281 MiB (4%)
Language : Russian
Default : No
Forced : Yes

Audio #2
ID : 3
Format : DTS
Format/Info : Digital Theater Systems
Format profile : ES
Codec ID : A_DTS
Duration : 1h 42mn
Bit rate mode : Constant
Bit rate : 1 510 Kbps
Channel(s) : 6 channels
Channel positions : Front: L C R, Side: L R, LFE
Sampling rate : 48.0 KHz
Bit depth : 24 bits
Compression mode : Lossy
Delay relative to video : 11ms
Stream size : 1.08 GiB (16%)
Title : DTS 1510
Language : English
Default : No
Forced : No

Text
ID : 4
Format : UTF-8
Codec ID : S_TEXT/UTF8
Codec ID/Info : UTF-8 Plain Text
Language : English
Default : No
Forced : No


Релиз от: SmashChat




реклама партнёра


Вернуться к началу
 Профиль  
 
   Похожие торренты   Автор   Торрент   Размер 
В этой теме нет новых непрочитанных сообщений. Феи: Легенда о чудовище / Legend of the NeverBeast (Стив Лотер) [мультфильм, фэнтези, приключения, семейный, 2014] BDRip 1080p, Dub [iTunes Russia]

Dracon

43 | 4

9.55 ГБ

В этой теме нет новых непрочитанных сообщений. Моана / Moana (Мультфильм, мюзикл, фэнтези, комедия, приключения, семейный, полнометражный, 2016) BDRip-AVC от OlLanDGroup | iTunes Russia

marya111

423 | 79

745.69 МБ

В этой теме нет новых непрочитанных сообщений. Феи: Легенда о чудовище / Legend of the NeverBeast (Стив Лотер) [мультфильм, фэнтези, приключения, семейный, 2014] BDRip 720p, Dub [iTunes Russia]

Dracon

50 | 3

4.18 ГБ

В этой теме нет новых непрочитанных сообщений. Пчёлка Майя / Maya the Bee Movie (Алекс Стадерманн) [мультфильм, фэнтези, приключения, 2014] BDRip 1080p, dub [iTunes Russia]

Dracon

304 | 14

4.13 ГБ

В этой теме нет новых непрочитанных сообщений. Феи: Легенда о чудовище / Legend of the NeverBeast (Стив Лотер) [мультфильм, фэнтези, приключения, семейный, 2014] HDRip, Dub [iTunes Russia]

Dracon

295 | 10

1.37 ГБ

В этой теме нет новых непрочитанных сообщений. Дом / Home (Тим Джонсон) [мультфильм, фантастика, фэнтези, комедия, приключения, семейный, 2015] BDRip 1080p, Dub [iTunes]

Dracon

67 | 6

4.62 ГБ

В этой теме нет новых непрочитанных сообщений. Семейка монстров / The Boxtroll [мультфильм, фэнтези, комедия, приключения, семейный, 2014] BDRip 1080p, Dub [3D-Video | iTunes]

Dracon

29 | 6

8.33 ГБ


СообщениеДобавлено: 14 авг 2013, 21:19 

Не в сети
Дата регистрации:
02 май 2013, 21:59
Спасибо: 0 / 0
Сообщения: 53
двд-5 будет :o


Вернуться к началу
 Профиль Отправить личное сообщение  
 
Начать новую тему Ответить на тему  [ Сообщений: 2 ] 




Для Мосгорсуда, Роскомнадзора и рекламодателей:: mosgorsud-torrent[собачка]yandex.ru