Торрент файл
скачать торрент магнет ссылка Добавлен: 04 авг 2013, 09:28
Размер: 3.48 ГБ
Сидеров: 11
Личеров: 7
Статус: (Aleksandr.ru)
Автор

СообщениеДобавлено: 04 авг 2013, 09:28 

Не в сети
Супермодератор
Аватара пользователя
Дата регистрации:
22 май 2010, 12:40
Спасибо: 2027 / 98
Сообщения: 2963
Откуда: Н.Новгород
Страна: Россия
Жанр: мультфильм, короткометражка, комедия, семейный
Год выпуска: 2009-2013
Продолжительность: серия ~ 7 минут

Перевод: не требуется
Оригинальная аудиодорожка: русский
Cубтитры: нет

Режиссеры: Олег Кузовков, Олег Ужинов, Денис Червяцов...

Роли озвучивали: Алина Кукушкина, Борис Кутневич, Эдуард Назаров

Описание: Мультсериал про девочку Машу, которая никому не дает покоя, и в первую очередь — своему другу Медведю.





Исходник: Blu-ray 1080p (серии 01-30)
Исходник: DVD5 R5 (серии 31-34)
Тип релиза: BDRip-AVC (серии 01-30)
Тип релиза: DVDRip-AVC (серии 31-34)
Контейнер: MKV

Видео: 1024х576, (16:9), 24,000 fps, H264 ~ 1869 kbps, 0.132 bit/pixel (01-30)
Видео: 720х576@1024х576, (16:9), 25,000 fps, H264 ~ 1800 kbps, 0.174 bit/pixel (31-34)
Аудио: 48 kHz, AC3, 2 ch, 192.00 kbps

Раздача от:
01. Первая встреча!(00:06:53)
02. До весны не будить!(00:06:53)
03. Раз, два, три! Ёлочка, гори!(00:08:06)
04. Весна пришла!(00:07:01)
05. Ловись рыбка!(00:06:55)
06. Следы невиданных зверей(00:07:17)
07. С волками жить...(00:07:13)
08. Позвони мне, позвони!(00:07:11)
09. День варенья(00:06:50)
10. Праздник на льду(00:06:52)
11. Первый раз в первый класс(00:07:07)
12. Граница на замке(00:06:59)
13. Кто не спрятался, я не виноват(00:06:41)
14. Лыжню!(00:06:59)
15. Будьте здоровы!(00:06:58)
16. Маша + каша(00:06:51)
17. Дальний родственник(00:06:58)
18. Большая стирка(00:06:46)
19. Репетиция оркестра(00:07:13)
20. Усатый полосатый(00:07:14)
21. Один дома(00:07:11)
22. Дышите! Не дышите!(00:07:10)
23. Подкидыш (00:07:13)
24. Приятного аппетита (00:07:12)
25. Фокус-покус (00:07:12)
26. Осторожно, ремонт! (00:07:11)
27. Картина маслом (00:07:09)
28. Ход конём (00:06:54)
29. Хит сезона (00:06:53)
30. Витамин роста (00:06:59)
31. Когда все дома (00:06:54)
32. Новая метла (00:06:57)
33. Сладкая жизнь (00:06:56)
34. Фотография 9х12 (00:06:56)

BDRip-AVC
Общее
Полное имя : Masha.i.Medved'.BDRip-AVC_[Youtracker]_by_AVP Studio5.Lovis',rubka.mkv
Формат : Matroska
Версия формата : Version 4 / Version 2
Размер файла : 102 Мбайт
Продолжительность : 6 м. 55 с.
Общий поток : 2059 Кбит/сек
Название фильма : 5.Lovis',rubka_[Youtracker]_by_AVP Studio
Дата кодирования : UTC 2013-05-28 14:36:35
Программа кодирования : mkvmerge v6.2.0 ('Promised Land') built on Apr 28 2013 12:22:01
Библиотека кодирования : libebml v1.3.0 + libmatroska v1.4.0

Видео
Идентификатор : 1
Формат : AVC
Формат/Информация : Advanced Video Codec
Профиль формата : High@L4.1
Параметр CABAC формата : Да
Параметр ReFrames формата : 9 кадров
Идентификатор кодека : V_MPEG4/ISO/AVC
Продолжительность : 6 м. 55 с.
Битрейт : 1869 Кбит/сек
Ширина : 1024 пикселя
Высота : 576 пикселей
Соотношение сторон : 16:9
Частота кадров : 24,000 кадра/сек
Цветовое пространство : YUV
Субдискретизация насыщенности : 4:2:0
Битовая глубина : 8 бит
Тип развёртки : Прогрессивная
Бит/(Пиксели*Кадры) : 0.132
Размер потока : 90,5 Мбайт (89%)
Заголовок : Источник BDRemux
Библиотека кодирования : x264 core 130 r2273 b3065e6
Настройки программы : cabac=1 / ref=11 / deblock=1:-2:-1 / analyse=0x3:0x133 / me=umh / subme=10 / psy=1 / psy_rd=1.00:0.10 / mixed_ref=1 / me_range=32 / chroma_me=1 / trellis=2 / 8x8dct=1 / cqm=0 / deadzone=21,11 / fast_pskip=0 / chroma_qp_offset=-3 / threads=10 / sliced_threads=0 / nr=0 / decimate=1 / interlaced=0 / bluray_compat=0 / constrained_intra=0 / bframes=8 / b_pyramid=2 / b_adapt=2 / b_bias=0 / direct=3 / weightb=1 / open_gop=1 / weightp=2 / keyint=250 / keyint_min=25 / scenecut=40 / intra_refresh=0 / rc_lookahead=60 / rc=2pass / mbtree=1 / bitrate=1869 / ratetol=1.0 / qcomp=0.60 / qpmin=0 / qpmax=69 / qpstep=4 / cplxblur=20.0 / qblur=0.5 / ip_ratio=1.40 / aq=1:1.50
Язык : Russian
Default : Да
Forced : Нет

Аудио
Идентификатор : 2
Формат : AC-3
Формат/Информация : Audio Coding 3
Профиль формата : Dolby Digital
Расширение режима : CM (complete main)
Идентификатор кодека : A_AC3
Продолжительность : 6 м. 55 с.
Вид битрейта : Постоянный
Битрейт : 192 Кбит/сек
Каналы : 2 канала
Расположение каналов : Front: L R
Частота : 48,0 КГц
Битовая глубина : 16 бит
Метод сжатия : С потерями
Размер потока : 9,51 Мбайт (9%)
Заголовок : Источник BDRemux
Язык : Russian
Default : Да
Forced : Нет

DVDRip-AVC
Общее
Полное имя : Masha.i.Medved'.32.Novaja.metla.mkv
Формат : Matroska
Версия формата : Version 2
Размер файла : 98,4 Мбайт
Продолжительность : 6 м. 54 с.
Общий поток : 1992 Кбит/сек
Название фильма : 32.Novaja.metla_[Youtracker]_by_AVP Studio
Дата кодирования : UTC 2013-05-28 10:54:34
Программа кодирования : mkvmerge v5.0.1 ('Es ist Sommer') built on Nov 6 2011 16:23:40
Библиотека кодирования : libebml v1.2.2 + libmatroska v1.3.0

Видео
Идентификатор : 1
Формат : AVC
Формат/Информация : Advanced Video Codec
Профиль формата : High@L4.1
Параметр CABAC формата : Да
Параметр ReFrames формата : 11 кадров
Идентификатор кодека : V_MPEG4/ISO/AVC
Продолжительность : 6 м. 54 с.
Битрейт : 1800 Кбит/сек
Ширина : 720 пикселей
Высота : 576 пикселей
Соотношение сторон : 16:9
Частота кадров : 25,000 кадров/сек
Стандарт вещания : PAL
Цветовое пространство : YUV
Субдискретизация насыщенности : 4:2:0
Битовая глубина : 8 бит
Тип развёртки : Прогрессивная
Бит/(Пиксели*Кадры) : 0.174
Размер потока : 87,0 Мбайт (88%)
Заголовок : Источник DVD
Библиотека кодирования : x264 core 130 r2273 b3065e6
Настройки программы : cabac=1 / ref=11 / deblock=1:-2:-1 / analyse=0x3:0x113 / me=umh / subme=9 / psy=1 / psy_rd=1.00:0.20 / mixed_ref=1 / me_range=32 / chroma_me=1 / trellis=1 / 8x8dct=1 / cqm=0 / deadzone=21,11 / fast_pskip=0 / chroma_qp_offset=-3 / threads=3 / lookahead_threads=1 / sliced_threads=0 / nr=0 / decimate=0 / interlaced=0 / bluray_compat=0 / constrained_intra=0 / bframes=8 / b_pyramid=2 / b_adapt=2 / b_bias=0 / direct=3 / weightb=1 / open_gop=0 / weightp=2 / keyint=250 / keyint_min=25 / scenecut=40 / intra_refresh=0 / rc_lookahead=60 / rc=2pass / mbtree=1 / bitrate=1800 / ratetol=1.0 / qcomp=0.60 / qpmin=0 / qpmax=69 / qpstep=4 / cplxblur=20.0 / qblur=0.5 / ip_ratio=1.40 / aq=1:1.00
Язык : Russian
Default : Да
Forced : Нет

Аудио
Идентификатор : 2
Формат : AC-3
Формат/Информация : Audio Coding 3
Расширение режима : CM (complete main)
Идентификатор кодека : A_AC3
Продолжительность : 6 м. 54 с.
Вид битрейта : Постоянный
Битрейт : 192 Кбит/сек
Каналы : 2 канала
Расположение каналов : Front: L R
Частота : 48,0 КГц
Битовая глубина : 16 бит
Метод сжатия : С потерями
Размер потока : 9,49 Мбайт (10%)
Заголовок : Источник DVD
Язык : Russian
Default : Да
Forced : Нет

BDRip-AVC


DVDRip-AVC





реклама партнёра


Вернуться к началу
 Профиль Отправить личное сообщение  
 
   Похожие торренты   Автор   Торрент   Размер 
В этой теме нет новых непрочитанных сообщений. Маша и медведь [01-48 из 48] + Машины сказки [01-26 из 26] [Мультсериал, комедия, семейный, 2009-2014] DVD5 + 3xDVD9 [Лицензия]

Dracon

199 | 102

26.48 ГБ

В этой теме нет новых непрочитанных сообщений. Маша и Медведь [01-54] + Машины Сказки [01-26] + Машкины страшилки [1-6 серии] [Мультсериал, сказка, детский, семейный, 2009-2015] BDRip 720p

Dracon

1 | 7

16.95 ГБ

В этой теме нет новых непрочитанных сообщений. Маша и Медведь - Красота страшная сила [40] (мультфильм, семейный. 2014) WebRip

Aleksandr.ru

907 | 12

95.03 МБ

В этой теме нет новых непрочитанных сообщений. Маша и Медведь. Пещерный медведь [48] [Мультсериал, сказка, детский, семейный. 2014] WEBRip

Dracon

117 | 5

97.91 МБ

В этой теме нет новых непрочитанных сообщений. Маша и Медведь [01-42] + Машины Сказки [01-26] [Мультсериал, сказка, детский, семейный, 2009-2014] HDRip, WEB-DLRip

Dracon

573 | 126

5.47 ГБ

В этой теме нет новых непрочитанных сообщений. Маша и медведь: Нынче всё наоборот [38] [Мультсериал, комедия. 2013] WEB-DLRip 720p

Dracon

72 | 3

138.69 МБ

В этой теме нет новых непрочитанных сообщений. Маша и Медведь. Раз в году [44] [Мультсериал, сказка, детский, семейный. 2014] WEB-DLRip

Dracon

30 | 3

107.25 МБ


Начать новую тему Ответить на тему  [ 1 сообщение ] 




Для Мосгорсуда, Роскомнадзора и рекламодателей:: mosgorsud-torrent[собачка]yandex.ru