Торрент файл
скачать торрент магнет ссылка Добавлен: 18 июл 2013, 10:27
Размер: 1.3 ГБ
Сидеров: 7
Личеров: 2
Автор

СообщениеДобавлено: 18 июл 2013, 10:27 

Не в сети
Зам. Админа
Аватара пользователя
Дата регистрации:
02 дек 2010, 12:39
Спасибо: 12461 / 214
Сообщения: 27968
«When the sea disappears»



Страна: Испания, Индия / Baleuko S.L., Image Venture...
Жанр: мультфильм, приключения
Год выпуска: 2012
Продолжительность: 01:10:08

Перевод: Профессиональный (многоголосый, закадровый)
Оригинальная аудиодорожка: нет
Cубтитры: нет

Режиссер: Иван Онека / Ivan Oneka, Горка Васкез / Gorka Vázquez

Описание: Пухленький Опил любит играть в монстров, рассматривать комиксы, жевать конфеты и чипсы. А вот рыбу он терпеть не может. Но мама хочет, чтобы он правильно питался, и готовит ему на ужин «рыбу желаний». «Если ты ее съешь, твои желания сбудутся», — убеждает она сына, чтобы тот проглотил хоть кусочек. Опил не воспринимает маму всерьез и пережевывает ненавистное блюдо, бубня, что он хочет, чтобы на Землю прилетели инопланетяне и уничтожили всех водоплавающих. К изумлению мальчика и всех окружающих, его желание действительно сбывается: нашу планету атакует армия пришельцев с Сатурна. Оккупанты уничтожают водных обитателей и иссушают океаны. Как же остановить коварных мародеров?






Исходник: DVD5
Качество видео: DVDRip-AVC
Формат видео: MKV

Видео: H264; 720x568@1024x568 (16:9); 2400 Kbps; 25,000 fps; 0,235 bpp
Аудио: АС3; 256 Kbps; CBR; 6 ch; 16 bit, 48 kHz

Раздача от:
Общее
Полное имя : Mest.volshebnoy.rybki.2012.P.DVDRip-AVC_[Youtracker]_by_avproh.mkv
Формат : Matroska
Версия формата : Version 2
Размер файла : 1,30 Гбайт
Продолжительность : 1 ч. 10 м.
Общий поток : 2658 Кбит/сек
Дата кодирования : UTC 2013-07-17 13:34:58
Программа кодирования : mkvmerge v5.0.1 ('Es ist Sommer') built on Nov 6 2011 16:23:40
Библиотека кодирования : libebml v1.2.2 + libmatroska v1.3.0

Видео
Идентификатор : 1
Формат : AVC
Формат/Информация : Advanced Video Codec
Профиль формата : High@L4.1
Параметр CABAC формата : Да
Параметр ReFrames формата : 11 кадров
Идентификатор кодека : V_MPEG4/ISO/AVC
Продолжительность : 1 ч. 10 м.
Битрейт : 2400 Кбит/сек
Ширина : 720 пикселей
Высота : 568 пикселей
Соотношение сторон : 16:9
Режим частоты кадров : Постоянный
Частота кадров : 25,000 кадров/сек
Цветовое пространство : YUV
Субдискретизация насыщенности : 4:2:0
Битовая глубина : 8 бит
Тип развёртки : Прогрессивная
Бит/(Пиксели*Кадры) : 0.235
Размер потока : 1,15 Гбайт (88%)
Библиотека кодирования : x264 core 130 r2273 b3065e6
Настройки программы : cabac=1 / ref=11 / deblock=1:-2:-1 / analyse=0x3:0x113 / me=umh / subme=9 / psy=1 / psy_rd=1.00:0.20 / mixed_ref=1 / me_range=32 / chroma_me=1 / trellis=1 / 8x8dct=1 / cqm=0 / deadzone=21,11 / fast_pskip=0 / chroma_qp_offset=-3 / threads=9 / lookahead_threads=1 / sliced_threads=0 / nr=0 / decimate=0 / interlaced=0 / bluray_compat=0 / constrained_intra=0 / bframes=8 / b_pyramid=2 / b_adapt=2 / b_bias=0 / direct=3 / weightb=1 / open_gop=0 / weightp=2 / keyint=250 / keyint_min=25 / scenecut=40 / intra_refresh=0 / rc_lookahead=60 / rc=2pass / mbtree=1 / bitrate=2400 / ratetol=1.0 / qcomp=0.60 / qpmin=0 / qpmax=69 / qpstep=4 / cplxblur=20.0 / qblur=0.5 / ip_ratio=1.40 / aq=1:1.00
Default : Да
Forced : Нет

Аудио
Идентификатор : 2
Формат : AC-3
Формат/Информация : Audio Coding 3
Расширение режима : CM (complete main)
Параметр Endianness формата : Big
Идентификатор кодека : A_AC3
Продолжительность : 1 ч. 10 м.
Вид битрейта : Постоянный
Битрейт : 256 Кбит/сек
Каналы : 6 каналов
Расположение каналов : Front: L C R, Side: L R, LFE
Частота : 48,0 КГц
Битовая глубина : 16 бит
Метод сжатия : С потерями
Размер потока : 128 Мбайт (10%)
Default : Да
Forced : Нет






реклама партнёра


Вернуться к началу
 Профиль  
 
   Похожие торренты   Автор   Торрент   Размер 
В этой теме нет новых непрочитанных сообщений. Большая рыба и Бегония / Big Fish & Begonia / Da Hai (мультфильм, приключения, фэнтези, драма, 2016) HDRip | L

marya111

71 | 5

1.45 ГБ

В этой теме нет новых непрочитанных сообщений. Облачно... 2: Месть ГМО / Cloudy with a Chance of Meatballs 2 [Мультфильм, фантастика, комедия, семейный, 2013] BDRip 1080p, dub [Лицензия | 3D-Video]

Dracon

61 | 6

7.01 ГБ

В этой теме нет новых непрочитанных сообщений. Облачно, возможны осадки: Месть ГМО / Cloudy 2: Revenge of the Leftovers [Мультфильм, Фантастика, Комедия, Семейный, 2013] HDRip, Dub [Лицензия]

Dracon

2621 | 60

1.46 ГБ

В этой теме нет новых непрочитанных сообщений. Облачно, возможны осадки: Месть ГМО / Cloudy 2: Revenge of the Leftovers [Мультфильм, Фантастика, Комедия, Семейный, 2013] BDRip 1080p, Dub+Sub [Лицензия]

Dracon

242 | 13

8.33 ГБ

В этой теме нет новых непрочитанных сообщений. Облачно, возможны осадки: Месть ГМО / Cloudy 2: Revenge of the Leftovers [Мультфильм, Фантастика, Комедия, Семейный, 2013] BDRip 720p, Dub+Sub [Лицензия]

Dracon

143 | 8

3.93 ГБ

В этой теме нет новых непрочитанных сообщений. Месть снежной королевы / The Snow Queen's Revenge [Мультфильм, 1996] DVDRip, Dub

salma3

0 | 2

1.37 ГБ

В этой теме нет новых непрочитанных сообщений. Fish Captain Rift Adventure [Arcade, 2014] [Лицензия]

Tobus

0 | 2

32.33 МБ


Начать новую тему Ответить на тему  [ 1 сообщение ] 




Для Мосгорсуда, Роскомнадзора и рекламодателей:: mosgorsud-torrent[собачка]yandex.ru