Торрент файл
скачать торрент магнет ссылка Добавлен: 07 июн 2013, 20:10
Размер: 1.72 ГБ
Сидеров: 15
Личеров: 2
Автор

СообщениеДобавлено: 07 июн 2013, 20:10 

Не в сети
Супермодератор
Аватара пользователя
Дата регистрации:
15 фев 2012, 16:44
Возраст: 27
Спасибо: 5136 / 2089
Сообщения: 17411
«Join the search for fun!»

Год выпуска: 2013
Страна: США
Киностудия: Walt Disney Television Animation
Жанр: мультфильм, комедия, семейный
Продолжительность: 00:50:52 + 2 * 00:23:04 + 5 * 00:02:56
Перевод: Профессиональный (полное дублирование)
Субтитры: нет


Режиссер: Келли Уорд / Kelly Ward, Шери Поллак / Sherie Pollack, Брони Ликоманов / Broni Likomanov...


Озвучивали: Тони Ансельмо, Билл Фармер, Тресс МакНилл, Расси Тейлор, Уэйн Оллвэйн, Джим Каммингс, Кори Бертон, Эйприл Уинчелл, Фрэнк Уэлкер, Уилл Райан...

Дублировали: Константин Петров, Михаил Хрусталев, Сергей Бзыгу, Снежина Копрова, Сауле Искакова...

Описание: Микки вызывает клуб заклинанием, а затем идёт выполнять определенную задачу. В ходе её выполнения маленький зритель учиться считать, различать формы, размер, цвета и т. п. В особо сложных случаях Микки зовёт Подручного и с помощью Маусструмента решает загадку. После решение задачи Микки и его друзья танцуют особый Маустанец (очень редко бывает кто-то ещё). После они уходят танцуя, а Микки обещает вернуться.



Качество: DVDRip (DVD9 R5)
Формат: AVI

Видео: 720x400 (16:9), 25.000 fps, XviD ~ 2000 kbps avg, 0.278 bit/pixel
Аудио: 48 kHz, Dolby AC3 2.0 192 kbps, русский

Раздача от:
01. Волшебник страны Дизз / The wizard of Dizz
02. Золотой петушок / The golden Boo Boo
03. Гуфи пропал / Goofi's gone

Бонусы:
04. Бантики-цветочки
05. Уроки танцев
06. Банто-робот
07. Воздушная тревога
08. Чп на дефиле
[/size]

General
Complete name : Klub.Mikki.Mausa.Volshebnik.strany.Dizz.2013.D.DVDRip_[Youtracker]_by_avproh\01.avi
Format : AVI
Format/Info : Audio Video Interleave
File size : 801 MiB
Duration : 50mn 52s
Overall bit rate : 2 201 Kbps
Writing application : VirtualDubModRus 1.5.10.2 (build 2542/release)
Writing library : VirtualDubMod build 2542/release

Video
ID : 0
Format : MPEG-4 Visual
Format profile : Advanced Simple@L5
Format settings, BVOP : 1
Format settings, QPel : No
Format settings, GMC : No warppoints
Format settings, Matrix : Custom
Codec ID : XVID
Codec ID/Hint : XviD
Duration : 50mn 52s
Bit rate : 2 000 Kbps
Width : 720 pixels
Height : 400 pixels
Display aspect ratio : 16:9
Frame rate : 25.000 fps
Color space : YUV
Chroma subsampling : 4:2:0
Bit depth : 8 bits
Scan type : Progressive
Compression mode : Lossy
Bits/(Pixel*Frame) : 0.278
Stream size : 728 MiB (91%)
Writing library : XviD 65

Audio
ID : 1
Format : AC-3
Format/Info : Audio Coding 3
Format profile : Dolby Digital
Mode extension : CM (complete main)
Codec ID : 2000
Duration : 50mn 52s
Bit rate mode : Constant
Bit rate : 192 Kbps
Channel(s) : 2 channels
Channel positions : Front: L R
Sampling rate : 48.0 KHz
Bit depth : 16 bits
Compression mode : Lossy
Stream size : 69.9 MiB (9%)
Alignment : Split accross interleaves
Interleave, duration : 40 ms (1.00 video frame)
Interleave, preload duration : 500 ms






реклама партнёра


Вернуться к началу
 Профиль Отправить личное сообщение  
 
   Похожие торренты   Автор   Торрент   Размер 
В этой теме нет новых непрочитанных сообщений. Волшебник / The Wizard [драма, комедия, приключения, семейный, 1989] HDTVRip 720p, Dvo

salma3

13 | 5

3.17 ГБ

В этой теме нет новых непрочитанных сообщений. Клуб домашних детективов / Clubhouse Detectives [детектив, приключения, семейный, 1996] DVDRip, Avo

salma3

9 | 2

1.48 ГБ

В этой теме нет новых непрочитанных сообщений. Кодекс пирата: приключения Микки Мэтсона / Pirate's Code: The Adventures of Mickey Matson (Харольд Кронк) [Cемейный, приключения, 2014] DVDRip, dvo

Dracon

70 | 2

1.37 ГБ

В этой теме нет новых непрочитанных сообщений. Самолёты / Planes [Мультфильм, комедия, семейный, полнометражный, 2013] Blu-ray, Dub+Sub [Лицензия]

Dracon

8 | 5

34.53 ГБ

В этой теме нет новых непрочитанных сообщений. Самолеты / Planes [Мультфильм, комедия, семейный, полнометражный, 2013] BDRip, Dub [Лицензия]

Dracon

2199 | 1720

1.37 ГБ

В этой теме нет новых непрочитанных сообщений. Самолёты / Planes [Мультфильм, комедия, семейный, полнометражный, 2013] DVD9, Dub+Sub [Лицензия]

Dracon

11 | 6

5.99 ГБ

В этой теме нет новых непрочитанных сообщений. Гадкий я 2 / Despicable Me 2 [Мультфильм, Комедия, Криминал, Семейный, 2013] BDRip-AVC, Dub [Лицензия]

Dracon

12 | 6

1.45 ГБ


Начать новую тему Ответить на тему  [ 1 сообщение ] 




Для Мосгорсуда, Роскомнадзора и рекламодателей:: mosgorsud-torrent[собачка]yandex.ru