Торрент файл
скачать торрент магнет ссылка Добавлен: 23 май 2013, 13:28
Размер: 1.46 ГБ
Сидеров: 200
Личеров: 12
Автор

СообщениеДобавлено: 23 май 2013, 13:28 

Не в сети
Супермодератор
Аватара пользователя
Дата регистрации:
15 фев 2012, 16:44
Возраст: 27
Спасибо: 5139 / 2090
Сообщения: 17432
«Давно не были в джунглях? Тогда мы идем к вам!»



Страна: Индия / Krayon Pictures
Жанр: мультфильм
Год выпуска: 2012
Продолжительность: 01:32:37
Перевод: Профессиональный (дублированный)
Оригинальная аудиодорожка: нет
Субтитры: нет

Режиссер: Никхил Адвани / Nikhil Advani

В ролях: Говинда, Акшай Кханна, Урмила Матондкар, Боман Ирани, Свини Кхера, Прем Чопра, Саурабх Шукла, Санджай Мишра, Дипак Добриял, Гириш Дхамиджа...

Роли дублировали: Арарат Кещян, Андрей Рожков

Описание: Животные — обитатели национального парка возле Бомбея — встречают яркое солнечное утро под пение птиц. И вдруг идиллическую картинку дикой природы нарушает страшный грохот. Это, круша все на своем пути, джунгли атакует человек на бульдозере. На месте прекрасной рощи люди водружают табличку: здесь идет строительство жилого комплекса.
Смертельно напуганные звери ночью собираются на совет. Юный леопард Юви горячо убеждает взрослых не бросать свои жилища. «Горячая голова» воин-обезьяна, Бахранжи, готов объявить смертельную войну незваным гостям, но Гуру в области конфликтологии, медведь Багга предлагает договориться с людьми по-хорошему. Одомашненный говорящий попугай Алекс решает присоединиться к друзьям, чтобы выступить переводчиком.
Разношерстная компания пускается в долгое путешествие в столицу. Через горы и реки, на поездах и грузовиках, чтобы найти Главного Начальника и передать ему свое прошение. По дороге выясняется, что не только их дома, но и жилища тысяч других животных находятся в опасности. В финале захватывающего приключения различные животные становятся друзьями, поскольку их объединяет борьба за общий ДОМ.




Качество: DVDRip (DVD5 R5)
Формат: AVI
Видео: 720x304 (1.35:1), 25.000 fps, XviD ~ 1795 kbps avg, 0.328 bit/pixel
Аудио: 48 kHz, AC3 6 ch, 448 kbps, русский

Раздача от:
Общее
Полное имя : Bratva.iz.dzhungley.2012.D.DVDRip_[Youtracker]_by_avproh.avi
Формат : AVI
Формат/Информация : Audio Video Interleave
Размер файла : 1,46 Гбайт
Продолжительность : 1 ч. 32 м.
Общий поток : 2252 Кбит/сек
Программа кодирования : VirtualDubMod 1.5.10.3 | http://www.virtualdub-fr.org || (build 2550/release)
Библиотека кодирования : VirtualDubMod build 2550/release

Видео
Идентификатор : 0
Формат : MPEG-4 Visual
Профиль формата : Advanced Simple@L5
Параметр BVOP формата : 1
Параметр QPel формата : Нет
Параметр GMC формата : Без точки перехода
Параметр матрицы формата : Выборочная
Идентификатор кодека : XVID
Идентификатор кодека/Подсказка : XviD
Продолжительность : 1 ч. 32 м.
Битрейт : 1795 Кбит/сек
Ширина : 720 пикселей
Высота : 304 пикселя
Соотношение сторон : 2,35:1
Частота кадров : 25,000 кадров/сек
Цветовое пространство : YUV
Субдискретизация насыщенности : 4:2:0
Битовая глубина : 8 бит
Тип развёртки : Прогрессивная
Метод сжатия : С потерями
Бит/(Пиксели*Кадры) : 0.328
Размер потока : 1,16 Гбайт (80%)
Библиотека кодирования : XviD 65

Аудио
Идентификатор : 1
Формат : AC-3
Формат/Информация : Audio Coding 3
Расширение режима : CM (complete main)
Параметр Endianness формата : Big
Идентификатор кодека : 2000
Продолжительность : 1 ч. 32 м.
Вид битрейта : Постоянный
Битрейт : 448 Кбит/сек
Каналы : 6 каналов
Расположение каналов : Front: L C R, Side: L R, LFE
Частота : 48,0 КГц
Битовая глубина : 16 бит
Метод сжатия : С потерями
Размер потока : 297 Мбайт (20%)
Выравнивание : Разделение по промежуткам
Продолжительность промежутка : 40 мс. (1,00 видеокадр)
Время предзагрузки промежутка : 500 мс.





реклама партнёра


Вернуться к началу
 Профиль Отправить личное сообщение  
 
   Похожие торренты   Автор   Торрент   Размер 
В этой теме нет новых непрочитанных сообщений. Братва, пушки и зомби / Gangsters, Guns and Zombies [ужасы, комедия, 2012] DVDRip, Avo [Xixidok]

salma3

5 | 2

1.21 ГБ

В этой теме нет новых непрочитанных сообщений. Дикая Южная Африка: Сафари / Wildlife South Africa: Safari [Документальный, 2012] BDRip, Avo

salma3

20 | 5

724.62 МБ

В этой теме нет новых непрочитанных сообщений. Книга джунглей / The Jungle Book [драма, фэнтези, приключения , 2016] BDRip, Dub [Лицензия]

salma3

0 | 0

1.46 ГБ

В этой теме нет новых непрочитанных сообщений. Хозяин джунглей / El Ardor (Пабло Фендрик) [драма, вестерн, 2014] HDRip, Mvo [Лицензия]

Dracon

263 | 13

1.45 ГБ

В этой теме нет новых непрочитанных сообщений. Хозяин джунглей / El Ardor (Пабло Фендрик) [драма, вестерн, 2014] BDRip 720p, Mvo [Лицензия]

Dracon

7 | 2

4.67 ГБ

В этой теме нет новых непрочитанных сообщений. Хозяин джунглей / El Ardor (Пабло Фендрик) [драма, вестерн, 2014] BDRip 1080p, Mvo [Лицензия]

Dracon

32 | 3

12.97 ГБ

В этой теме нет новых непрочитанных сообщений. Книга джунглей / The Jungle Book [Фэнтези, драма, приключения, 2016] BDRip 720p, Dub [Лицензия]

marya111

0 | 0

7.84 ГБ


Начать новую тему Ответить на тему  [ 1 сообщение ] 




Для Мосгорсуда, Роскомнадзора и рекламодателей:: mosgorsud-torrent[собачка]yandex.ru