Торрент файл
скачать торрент магнет ссылка Добавлен: 23 май 2013, 11:59
Размер: 3.34 ГБ
Сидеров: 31
Личеров: 3
Автор

СообщениеДобавлено: 23 май 2013, 11:59 

Не в сети
Зам. Админа
Аватара пользователя
Дата регистрации:
02 дек 2010, 12:39
Спасибо: 12461 / 214
Сообщения: 27968


Год выпуска: 2013
Жанр: Мультфильм, приключения, семейный
Выпущено: Россия, Анимос, United Multimedia Projects
Режиссер: Екатерина Михайлова
В ролях: Олег Табаков, Оскар Кучера, Нонна Гришаева, Полина Кутепова, Лидия Аветисян, Ольга Прокофьева, Борис Смолкин, Леонид Якубович, Мадлен Джабраилова, Елена Симонова
О фильме: В современной нам Москве Карабас-Барабас, сменив имидж и имя, открывает фабрику-конвейер по производству игрушек. В цехах высотного здания из «сырья» — старых игрушек всех сортов и форм, — производятся две «инновационные» унифицированные модели: робот Зубастик для мальчиков и кукла Гламушка для девочек. Господин Баскара — так сейчас следует называть Карабаса, — уверен, что будущее (и огромные прибыли!) — именно за его моделями.



Качество: BDRip (1080p)
Видео: MPEG-4 AVC, 4615 Кбит/с, 1920x1080
Аудио: Русский (DTS, 6 ch, 1509 Кбит/с)
Размер: 3.34 ГБ
Продолжительность: 01:16:36
Язык: Русский
Общее
Уникальный идентификатор : 208741382687232875582188888570566708496 (0x9D0A20C1A8E74191935E002FF0FA8D10)
Полное имя : Возвращение Буратино (2013, BDRip, 1080p).mkv
Формат : Matroska
Версия формата : Version 4 / Version 2
Размер файла : 3,34 Гбайт
Продолжительность : 1 ч. 16 м.
Общий поток : 6249 Кбит/сек
Дата кодирования : UTC 2013-05-23 07:16:01
Программа кодирования : mkvmerge v6.2.0 ('Promised Land') built on Apr 28 2013 12:22:01
Библиотека кодирования : libebml v1.3.0 + libmatroska v1.4.0

Видео
Идентификатор : 1
Формат : AVC
Формат/Информация : Advanced Video Codec
Профиль формата : High@L4.1
Параметр CABAC формата : Да
Параметр ReFrames формата : 4 кадра
Идентификатор кодека : V_MPEG4/ISO/AVC
Продолжительность : 1 ч. 16 м.
Битрейт : 4615 Кбит/сек
Ширина : 1920 пикселей
Высота : 1080 пикселей
Соотношение сторон : 16:9
Режим частоты кадров : Постоянный
Частота кадров : 23,976 кадра/сек
Цветовое пространство : YUV
Субдискретизация насыщенности : 4:2:0
Битовая глубина : 8 бит
Тип развёртки : Прогрессивная
Бит/(Пиксели*Кадры) : 0.093
Размер потока : 2,47 Гбайт (74%)
Библиотека кодирования : x264 core 129 r2230 1cffe9f
Настройки программы : cabac=1 / ref=4 / deblock=1:1:1 / analyse=0x3:0x133 / me=umh / subme=11 / psy=1 / psy_rd=0.40:0.00 / mixed_ref=1 / me_range=32 / chroma_me=1 / trellis=2 / 8x8dct=1 / cqm=0 / deadzone=21,11 / fast_pskip=0 / chroma_qp_offset=-2 / threads=36 / lookahead_threads=6 / sliced_threads=0 / nr=0 / decimate=1 / interlaced=0 / bluray_compat=0 / constrained_intra=0 / bframes=10 / b_pyramid=2 / b_adapt=2 / b_bias=0 / direct=3 / weightb=1 / open_gop=0 / weightp=2 / keyint=240 / keyint_min=23 / scenecut=40 / intra_refresh=0 / rc_lookahead=60 / rc=crf / mbtree=1 / crf=18.0 / qcomp=0.60 / qpmin=0 / qpmax=69 / qpstep=4 / vbv_maxrate=62500 / vbv_bufsize=78125 / crf_max=0.0 / nal_hrd=none / ip_ratio=1.40 / aq=1:0.60
Язык : English
Default : Да
Forced : Нет

Аудио
Идентификатор : 2
Формат : DTS
Формат/Информация : Digital Theater Systems
Режим : 16
Параметр Endianness формата : Big
Идентификатор кодека : A_DTS
Продолжительность : 1 ч. 16 м.
Вид битрейта : Постоянный
Битрейт : 1509 Кбит/сек
Каналы : 6 каналов
Расположение каналов : Front: L C R, Side: L R, LFE
Частота : 48,0 КГц
Битовая глубина : 24 бит
Метод сжатия : С потерями
Размер потока : 827 Мбайт (24%)
Default : Да
Forced : Нет

Меню
00:00:00.000 : en:00:00:00.000
00:04:10.417 : en:00:04:10.417
00:11:21.764 : en:00:11:21.764
00:19:11.275 : en:00:19:11.275
00:26:15.199 : en:00:26:15.199
00:32:20.021 : en:00:32:20.021
00:39:59.731 : en:00:39:59.731
00:47:29.764 : en:00:47:29.764
00:54:50.871 : en:00:54:50.871
01:02:52.143 : en:01:02:52.143
01:08:43.119 : en:01:08:43.119
01:13:06.716 : en:01:13:06.716







реклама партнёра


Вернуться к началу
 Профиль  
 
   Похожие торренты   Автор   Торрент   Размер 
В этой теме нет новых непрочитанных сообщений. Оз: Возвращение в Изумрудный Город / Legends of Oz: Dorothy's Return [мультфильм, мюзикл, семейный, 2013] BDRip-AVC, Dub [лицензия]

Dracon

104 | 4

2.15 ГБ

В этой теме нет новых непрочитанных сообщений. Оз: Возвращение в Изумрудный Город / Legends of Oz: Dorothy's Return [мультфильм, мюзикл, семейный, 2013] BDRip-AVC, Dub [лицензия | 3D-Video]

Dracon

378 | 29

7.41 ГБ

В этой теме нет новых непрочитанных сообщений. Белка и Стрелка: Лунные приключения [мультфильм, комедия, приключения, семейный, 2013] BDRip 720p | [Лицензия]

Dracon

430 | 13

2.91 ГБ

В этой теме нет новых непрочитанных сообщений. Белка и Стрелка: Лунные приключения [мультфильм, комедия, приключения, семейный, 2013] BDRip 1080p | [Лицензия]

Dracon

64 | 4

3.88 ГБ

В этой теме нет новых непрочитанных сообщений. Оз: Возвращение в Изумрудный Город / Legends of Oz: Dorothy's Return [мультфильм, мюзикл, семейный, 2013] DVD5, Dub+Sub [лицензия]

Dracon

82 | 30

4.03 ГБ

В этой теме нет новых непрочитанных сообщений. Конг: Возвращение в джунгли / Kong: Return To The Jungle [Мультфильм, приключения, семейный, 2006] DVDRip-AVC, Dub [Лицензия]

salma3

2 | 4

1.37 ГБ

В этой теме нет новых непрочитанных сообщений. Тарзан / Tarzan [Мультфильм, приключения, семейный, 2013] BDRip 1080p, Dub [Лицензия | 3D-Video]

Dracon

193 | 14

7.47 ГБ


Начать новую тему Ответить на тему  [ 1 сообщение ] 




Для Мосгорсуда, Роскомнадзора и рекламодателей:: mosgorsud-torrent[собачка]yandex.ru