Торрент файл
скачать торрент магнет ссылка Добавлен: 13 май 2013, 21:33
Размер: 622.81 МБ
Сидеров: 28
Личеров: 3
Автор

СообщениеДобавлено: 13 май 2013, 21:33 

Не в сети
Зам. Админа
Аватара пользователя
Дата регистрации:
02 дек 2010, 12:39
Спасибо: 12461 / 214
Сообщения: 27968
Страна: США
Жанр:Короткометражка, комедия, фантастика.
Продолжительность: 00:12:30
Год выпуска: 2011
Перевод: Любительский (многоголосый закадровый)
Русские субтитры: нет

Режиссёр: Роберт Портер / Robert Porter
Роли озвучивали: Сет Роген, Кифер Сазерленд, Джеймс Хоран, Дэвид Кэй, Джули Уайт, Джеффри Тэмбор, Брэт Марнелл, Стивен Кеарин.

Описание: После того, как чужеродная тыква-мутант взрывается в морковном саду Мёрфи, зомби морковь начинают атаковать в непосредственной близости, и это приводит к сумасшедшим событиям

Дополнительная информация: * Перевод: '+1_
* Подготовка видео: JonEA
* Сведение и работа со звуком: JonEA
Евгений Кокурин - Доктор Таракан и д.р.
Трина Дубовицкая - Все Женские Персонажи.
Данил Бакиров - Б.О.Б, Морковка.
Дмитрий Балясов - Звено.
Дмитрий Рыжков - Генерал Воякер.

Качество: BDRip 720p
Формат: MKV
Видео: 1280x720 (16:9), 23.976 fps, AVC, ~5923 kbps, 0.268 bits/pixel
Аудио: 48 kHz, AC3 Dolby Digital, 3/2 (L,C,R,l,r) + LFE ch, ~448.00 kbps avg
Аудио 2: 48 kHz, AC3 Dolby Digital, 3/2 (L,C,R,l,r) + LFE ch, ~448.00 kbps avg
Субтитры: Нет

Общее
Уникальный идентификатор: 228820633930475605345335369965891948378 (0xAC254046A676EB79B417069D86370F5A)
Полное имя: E:Monsters.vs.Aliens.Night.of.Living.Carrots.BDRip.720p.Rus.Eng.SkyeFilmTV.mkv
Формат: Matroska
Версия формата: Version 1
Размер файла: 623 Мбайт
Продолжительность: 12 м.
Общий поток: 6957 Кбит/сек
Дата кодирования: UTC 2013-05-04 19:08:23
Программа кодирования: mkvmerge v2.1.0 ('Another Place To Fall') built on Aug 19 2007 13:40:07
Библиотека кодирования: libebml v0.7.7 + libmatroska v0.8.1

Видео
Идентификатор: 1
Формат: AVC
Формат/Информация: Advanced Video Codec
Профиль формата: High@L3.1
Параметр CABAC формата: Да
Параметр ReFrames формата: 4 кадра
Идентификатор кодека: V_MPEG4/ISO/AVC
Продолжительность: 12 м.
Битрейт: 5923 Кбит/сек
Ширина: 1280 пикселей
Высота: 720 пикселей
Соотношение сторон: 16:9
Режим частоты кадров: Постоянный
Частота кадров: 23,976 кадра/сек
Цветовое пространство: YUV
Субдискретизация насыщенности: 4:2:0
Битовая глубина: 8 бит
Тип развёртки: Прогрессивная
Бит/(Пиксели*Кадры): 0.268
Размер потока: 530 Мбайт (85%)
Библиотека кодирования: x264 core 120 r2164 da19765
Настройки программы: cabac=1 / ref=3 / deblock=1:0:0 / analyse=0x3:0x113 / me=hex / subme=7 / psy=1 / psy_rd=1.00:0.00 / mixed_ref=1 / me_range=16 / chroma_me=1 / trellis=1 / 8x8dct=1 / cqm=0 / deadzone=21,11 / fast_pskip=1 / chroma_qp_offset=-2 / threads=3 / sliced_threads=0 / nr=0 / decimate=1 / interlaced=0 / bluray_compat=0 / constrained_intra=0 / bframes=3 / b_pyramid=2 / b_adapt=1 / b_bias=0 / direct=1 / weightb=1 / open_gop=0 / weightp=2 / keyint=240 / keyint_min=23 / scenecut=40 / intra_refresh=0 / rc_lookahead=40 / rc=crf / mbtree=1 / crf=14.0 / qcomp=0.60 / qpmin=0 / qpmax=69 / qpstep=4 / ip_ratio=1.40 / aq=1:1.00
Язык: English
Default: Да
Forced: Нет

Аудио #1
Идентификатор: 2
Формат: AC-3
Формат/Информация: Audio Coding 3
Расширение режима: CM (complete main)
Параметр Endianness формата: Big
Идентификатор кодека: A_AC3
Продолжительность: 12 м.
Вид битрейта: Постоянный
Битрейт: 448 Кбит/сек
Каналы: 6 каналов
Расположение каналов: Front: L C R, Side: L R, LFE
Частота: 48,0 КГц
Битовая глубина: 16 бит
Метод сжатия: С потерями
Размер потока: 40,1 Мбайт (6%)
Заголовок: SkyeFilmTV
Язык: Russian
Default: Да
Forced: Нет

Аудио #2
Идентификатор: 3
Формат: AC-3
Формат/Информация: Audio Coding 3
Расширение режима: CM (complete main)
Параметр Endianness формата: Big
Идентификатор кодека: A_AC3
Продолжительность: 12 м.
Вид битрейта: Постоянный
Битрейт: 448 Кбит/сек
Каналы: 6 каналов
Расположение каналов: Front: L C R, Side: L R, LFE
Частота: 48,0 КГц
Битовая глубина: 16 бит
Метод сжатия: С потерями
Размер потока: 40,1 Мбайт (6%)
Заголовок: English
Язык: English
Default: Нет
Forced: Нет





реклама партнёра


Вернуться к началу
 Профиль  
 
   Похожие торренты   Автор   Торрент   Размер 
В этой теме нет новых непрочитанных сообщений. Мимесис. Ночь живых мертвецов / Mimesis: Night of the Living Dead [Ужасы, 2011] BDRip 720p, dvo

Dracon

9 | 3

4.59 ГБ

В этой теме нет новых непрочитанных сообщений. Мимесис. Ночь живых мертвецов / Mimesis: Night of the Living Dead [Ужасы, 2011] HDRip, dvo

Dracon

3 | 2

1.47 ГБ

В этой теме нет новых непрочитанных сообщений. Финес и Ферб: Ночь живых аптекарей / Phineas and Ferb: Night of The Living Pharmacistsb [Мультфильм / Комедия / Семейный / 2014] WEB-DLRip, Dub

Dracon

260 | 13

714.59 МБ

В этой теме нет новых непрочитанных сообщений. Ночь Живых Мертвецов / Night Of The Living Dead [ужасы, 1990] BDRemux 1080p, Avo+Sub

salma3

31 | 3

24.06 ГБ

В этой теме нет новых непрочитанных сообщений. Ночь кометы / Night of the Comet [фантастика, комедия, ужасы, 1984] BDRip 720p, Dvo

salma3

19 | 0

3.34 ГБ

В этой теме нет новых непрочитанных сообщений. Тихая ночь, смертельная ночь / Silent Night, Deadly Night [ужасы, триллер, слэшер, 1984] BDRip 720p, Avo

salma3

9 | 3

3.6 ГБ

В этой теме нет новых непрочитанных сообщений. Неудачная ночь / Ночь накануне Хэллоуина / Mischief Night / The Night Before Halloween [ужасы, триллер, драма, 2013] BDRip 720p, Avo

salma3

71 | 2

2.38 ГБ


Начать новую тему Ответить на тему  [ 1 сообщение ] 




Для Мосгорсуда, Роскомнадзора и рекламодателей:: mosgorsud-torrent[собачка]yandex.ru