Торрент файл
скачать торрент магнет ссылка Добавлен: 11 май 2013, 09:55
Размер: 2.95 ГБ
Сидеров: 7
Личеров: 4
Автор

СообщениеДобавлено: 11 май 2013, 09:55 

Не в сети
Зам. Админа
Аватара пользователя
Дата регистрации:
02 дек 2010, 12:39
Спасибо: 12461 / 214
Сообщения: 27968
Полный второй сезон



Год выпуска: 2011
Страна: Италия
Киностудия: Mondo TV
Жанр:мультфильм, приключения
Продолжительность: ~ 00:15:00 / серия
Перевод: Профессиональный (многоголосый, закадровый)
Субтитры: нет


Режиссер: Маурисио Форестьери / Maurizio Forestieri


Описание: Флинн и Алисия, капитаны пиратских кораблей Авроры и Эльдорадо - отправляются на поиски флага "Три Клинка". Ведь старая легенда гласит: "Тот, кто найдет флаг "Три Клинка" - тот станет непобедимым". Но на их пути появляется самый опасный пират в мире - Ураган Джо, который похитил старинный пергамент, указывающий путь к заветному флагу и сокровищам капитана Примо. Но на помощь Алисии и Флинну приходит принцесса Красная Лилия, которая запомнила карту и теперь они все вместе отправляются в захватывающее путешествие на поиски магического флага и сокровищ капитана Примо.



Исходник: 2xDVD5 R5
Качество: DVDRip
Формат: AVI
Видео: 720x544 (4:3), 25 fps, XviD MPEG-4 ~ 2000 kbps avg, 0.204 bit/pixel
Аудио: Русский AC3 2.0, 192Kbps, 48 khz
Раздача от:

"В поисках флага "Три клинка"
01. В поисках флага "Три клинка"
02. Водоворот смерти
03. Проклятие жизни наоборот
04. Заколдованный лабиринт
05. Пролив Дерущихся Монстров
06. Перевернутый остров
07. Остров туманов

"Сокровища капитана Примо"
08. Остров вечной молодости
09. Галеон капитана Примо
10. Ключ к сокровищам
11. Погоня за Ураганом Джо
12. Остров Молоха
13. Все по домам


Общее
Полное имя: Monstry.i.piraty.s01.2011.P.DVDRip_[Youtracker]_by_avproh�1.avi
Формат: AVI
Формат/Информация: Audio Video Interleave
Размер файла: 240 Мбайт
Продолжительность: 15 м.
Общий поток: 2200 Кбит/сек
Программа кодирования: VirtualDubModRus 1.5.10.2 (build 2542/release)
Библиотека кодирования: VirtualDubMod build 2542/release

Видео
Идентификатор: 0
Формат: MPEG-4 Visual
Профиль формата: Advanced Simple@L5
Параметр BVOP формата: 1
Параметр QPel формата: Нет
Параметр GMC формата: Без точки перехода
Параметр матрицы формата: Выборочная
Идентификатор кодека: XVID
Идентификатор кодека/Подсказка: XviD
Продолжительность: 15 м.
Битрейт: 1999 Кбит/сек
Ширина: 720 пикселей
Высота: 544 пикселя
Соотношение сторон: 4:3
Частота кадров: 25,000 кадров/сек
Цветовое пространство: YUV
Субдискретизация насыщенности: 4:2:0
Битовая глубина: 8 бит
Тип развёртки: Прогрессивная
Метод сжатия: С потерями
Бит/(Пиксели*Кадры): 0.204
Размер потока: 218 Мбайт (91%)
Библиотека кодирования: XviD 65

Аудио
Идентификатор: 1
Формат: AC-3
Формат/Информация: Audio Coding 3
Расширение режима: CM (complete main)
Параметр Endianness формата: Big
Идентификатор кодека: 2000
Продолжительность: 15 м.
Вид битрейта: Постоянный
Битрейт: 192 Кбит/сек
Каналы: 2 канала
Расположение каналов: Front: L R
Частота: 48,0 КГц
Битовая глубина: 16 бит
Метод сжатия: С потерями
Размер потока: 20,9 Мбайт (9%)
Выравнивание: Разделение по промежуткам
Продолжительность промежутка: 40мс. (1,00 видеокадр)
Время предзагрузки промежутка: 500мс.







реклама партнёра


Вернуться к началу
 Профиль  
 
   Похожие торренты   Автор   Торрент   Размер 
В этой теме нет новых непрочитанных сообщений. Пираты побережья / I pirati della costa / Les pirates de la côte / Pirates of the Coast [Приключения, 1960] DVDRip, Avo

salma3

93 | 31

1.5 ГБ

В этой теме нет новых непрочитанных сообщений. Лига справедливости: Боги и монстры / Justice League: Gods and Monsters (Сэм Лью) [боевик, мультфильм, 2015] BDRip, Mvo

Dracon

792 | 68

1.45 ГБ

В этой теме нет новых непрочитанных сообщений. Ледовые пираты / The Ice Pirates [фантастика, боевик, комедия, приключения, 1984] BDRip-AVC, Mvo+Sub

salma3

150 | 12

2.05 ГБ

В этой теме нет новых непрочитанных сообщений. Пираты / Pirates / Hae-jeok: Ba-da-ro gan san-jeok (Сок Хун Ли) [история, комедия, приключения, 2014] HDRip, dvo [GREEN TEA]

Dracon

1026 | 23

1.46 ГБ

В этой теме нет новых непрочитанных сообщений. Пираты / Pirates / Hae-jeok: Ba-da-ro gan san-jeok [история, комедия, приключения, 2014] HDRip, dvo [GREEN TEA]

Dracon

568 | 13

2.19 ГБ

В этой теме нет новых непрочитанных сообщений. Пираты / Pirates / Hae-jeok: Ba-da-ro gan san-jeok (Сок Хун Ли) [2014, история, комедия, приключения, HDTVRip 720p] dvo

Nickolas3435

1214 | 95

3.77 ГБ

В этой теме нет новых непрочитанных сообщений. Пираты Карибского моря: Мертвецы не рассказывают сказки / Pirates of the Caribbean: Dead Men Tell No Tales [Фэнтези, боевик, комедия, приключения, 2017] HDRip-1080p, Dub [Тизер]

salma3

1268 | 18

26.73 МБ


Начать новую тему Ответить на тему  [ 1 сообщение ] 




Для Мосгорсуда, Роскомнадзора и рекламодателей:: mosgorsud-torrent[собачка]yandex.ru