Торрент файл
скачать торрент магнет ссылка Добавлен: 10 май 2013, 06:14
Размер: 1.14 ГБ
Сидеров: 0
Личеров: 5
Автор

СообщениеДобавлено: 10 май 2013, 06:29 

Не в сети
Дата регистрации:
30 дек 2012, 18:57
Спасибо: 3 / 0
Сообщения: 17
Гриффины 11 Сезон / (Family Guy) 11 Sezon



Год выпуска: 2013
Выпущено: США, Kripke Enterprises
Жанр: Для взрослых, Зарубежные мультфильмы, Комедия, Мультсериалы
Продолжительность: 1 серия -~ 21 мин
Перевод: Любительский (Многоголосый) (перевод и озвучка) Анатольич, Сайфер
Субтитры: Отсутствуют
Режиссер: Питер Шин, Джулиус Ву, Джеймс Пурдум
В ролях:


Сет Грин
Мила Кунис
Алекс Борштейн
Патрик Варбертон
Сет МакФарлейн
Ральф Гармен
Майк Генри
Дэнни Смит
Джон Винер
Алек Салкин

Описание: Как нетрудно догадаться, главными героями шоу является семейка Гриффинов: тупой, но полный сумашедших идей, составляющих львиную долю шуток сериала, отец семейства Питер; его любящя и терпеливая жена Лойс, всеми силами пытающаяся превратить Гриффинов в нормальную семью; их интеллектуально развитый не по годам, вынашивающий идею мирового господства младший сын Стьюи; дочь-ботаник, обречённая из-за этого на одиночество и непонимание как в школе так и дома, Мэг; и 13-ти летний отсталый в развитии лет на 10, сын Крис. Также полноценным членом семьи является пёс Брайн - склонный к меланхолии эстет, спокойно наблюдающий с бокалом вина в лапе над приключениями Питера и остальных членов семьи.
Kinopoisk
[hr]
Доп. информация: Релиз [font="monospace"]deadmauvlad'a[/font]
Качество: WEB-DLRip
Формат: MKV
Видео кодек: ]XviD
Аудио кодек:MP3
Видео: Xvid.1280*720(16:9).30,000 кадров/сек.4:2:0. 2675 Кбит/сек
Аудио: MP3.256 Кбит/сек.2 канала.48,0 КГц[
Раздача ведется путем добавления новых Серий: 10.05.2013 Добавлена 1,2,3 Серия
1. Открыть торрент
2. Снять галки с тех файлов торрента, которые мы не хотим закачивать. Оставляем только на нужных нам файлах (файле).
3. Нажать О.К.

2) Снять галки с тех файлов торрента, которые мы не хотим закачивать:

* либо вручную, снимая с каждого файла галку( скрин №1)
* либо, нажав кнопку "Снять метки (Select None)", сняв сразу со всех файлов(скрин №2)
№2

[hr]
Оставляем только на нужных нам файлах (файле).

[font="monospace"]3)Нажать О.К[/font]












Общее
Уникальный идентификатор : 226056420893503418396875572507294813692 (0xAA10E20D12B93387BF97A9887F57CDFC)
Полное имя : C:\Гриффины (11 сезон) WEBDLRip_by_deadmauvlad\Гриффины(11 сезон) Серия № 1 WEBDLRip.720 deadmauvlad_[MVO].mkv
Формат : Matroska
Версия формата : Version 2
Размер файла : 410 Мбайт
Продолжительность : 21 м.
Общий поток : 2675 Кбит/сек
Название фильма : Гриффины (11 сезон) Серия № 1 WEBDLRip.720 deadmauvlad
Дата кодирования : UTC 2013-05-09 11:00:30
Программа кодирования : mkvmerge v5.7.0 ('The Whirlwind') built on Jul 29 2012 15:12:35
Библиотека кодирования : libebml v1.2.3 + libmatroska v1.3.0

Видео
Идентификатор : 1
Формат : MPEG-4 Visual
Профиль формата : Simple@L1
Параметр BVOP формата : Да
Параметр QPel формата : Нет
Параметр GMC формата : Без точки перехода
Параметр матрицы формата : Default (H.263)
Идентификатор кодека : V_MS/VFW/FOURCC / XVID
Идентификатор кодека/Подсказка : XviD
Битрейт : 2366 Кбит/сек
Ширина : 1280 пикселей
Высота : 720 пикселей
Соотношение сторон : 16:9
Режим частоты кадров : Переменный
Частота кадров в оригинале : 30,000 кадров/сек
Цветовое пространство : YUV
Субдискретизация насыщенности : 4:2:0
Битовая глубина : 8 бит
Тип развёртки : Прогрессивная
Метод сжатия : С потерями
Default : Да
Forced : Нет

Аудио
Идентификатор : 2
Формат : MPEG Audio
Версия формата : Version 1
Профиль формата : Layer 2
Режим смешивания : Header stripping
Идентификатор кодека : A_MPEG/L2
Идентификатор кодека/Подсказка : MP2
Продолжительность : 21 м.
Вид битрейта : Постоянный
Битрейт : 256 Кбит/сек
Каналы : 2 канала
Частота : 48,0 КГц
Метод сжатия : С потерями
Размер потока : 39,3 Мбайт (10%)
Default : Да
Forced : Нет

Общее
Уникальный идентификатор : 212538876114109652713448773070867133280 (0x9FE57FA34BE948EB85BB512F03CFF360)
Полное имя : C:\Гриффины (11 сезон) WEBDLRip_by_deadmauvlad\Гриффины(11 сезон) Серия № 2 WEBDLRip.720 deadmauvlad_[MVO].mkv
Формат : Matroska
Версия формата : Version 2
Размер файла : 381 Мбайт
Продолжительность : 21 м.
Общий поток : 2524 Кбит/сек
Дата кодирования : UTC 2013-05-09 12:30:06
Программа кодирования : mkvmerge v5.7.0 ('The Whirlwind') built on Jul 29 2012 15:12:35
Библиотека кодирования : libebml v1.2.3 + libmatroska v1.3.0

Видео
Идентификатор : 1
Формат : MPEG-4 Visual
Профиль формата : Simple@L1
Параметр BVOP формата : Да
Параметр QPel формата : Нет
Параметр GMC формата : Без точки перехода
Параметр матрицы формата : Default (H.263)
Идентификатор кодека : V_MS/VFW/FOURCC / XVID
Идентификатор кодека/Подсказка : XviD
Битрейт : 2154 Кбит/сек
Ширина : 1280 пикселей
Высота : 720 пикселей
Соотношение сторон : 16:9
Режим частоты кадров : Переменный
Частота кадров в оригинале : 30,000 кадров/сек
Цветовое пространство : YUV
Субдискретизация насыщенности : 4:2:0
Битовая глубина : 8 бит
Тип развёртки : Прогрессивная
Метод сжатия : С потерями
Default : Да
Forced : Нет

Аудио
Идентификатор : 2
Формат : MPEG Audio
Версия формата : Version 1
Профиль формата : Layer 2
Режим смешивания : Header stripping
Идентификатор кодека : A_MPEG/L2
Идентификатор кодека/Подсказка : MP2
Продолжительность : 21 м.
Вид битрейта : Постоянный
Битрейт : 320 Кбит/сек
Каналы : 2 канала
Частота : 48,0 КГц
Метод сжатия : С потерями
Размер потока : 48,3 Мбайт (13%)
Default : Да
Forced : Нет

Общее
Уникальный идентификатор : 173550985732783046789575302467685700298 (0x8290B43B50893F49AEEB2C5FCFC3D2CA)
Полное имя : C:\Гриффины (11 сезон) WEBDLRip_by_deadmauvlad\Гриффины(11 сезон) Серия № 3 WEBDLRip.720 deadmauvlad_[MVO].mkv
Формат : Matroska
Версия формата : Version 2
Размер файла : 376 Мбайт
Продолжительность : 21 м.
Общий поток : 2453 Кбит/сек
Дата кодирования : UTC 2013-05-09 13:09:51
Программа кодирования : mkvmerge v5.7.0 ('The Whirlwind') built on Jul 29 2012 15:12:35
Библиотека кодирования : libebml v1.2.3 + libmatroska v1.3.0

Видео
Идентификатор : 1
Формат : MPEG-4 Visual
Профиль формата : Simple@L1
Параметр BVOP формата : Да
Параметр QPel формата : Нет
Параметр GMC формата : Без точки перехода
Параметр матрицы формата : Default (H.263)
Идентификатор кодека : V_MS/VFW/FOURCC / XVID
Идентификатор кодека/Подсказка : XviD
Битрейт : 2084 Кбит/сек
Ширина : 1280 пикселей
Высота : 720 пикселей
Соотношение сторон : 16:9
Режим частоты кадров : Переменный
Частота кадров в оригинале : 30,000 кадров/сек
Цветовое пространство : YUV
Субдискретизация насыщенности : 4:2:0
Битовая глубина : 8 бит
Тип развёртки : Прогрессивная
Метод сжатия : С потерями
Default : Да
Forced : Нет

Аудио
Идентификатор : 2
Формат : MPEG Audio
Версия формата : Version 1
Профиль формата : Layer 2
Режим смешивания : Header stripping
Идентификатор кодека : A_MPEG/L2
Идентификатор кодека/Подсказка : MP2
Продолжительность : 21 м.
Вид битрейта : Постоянный
Битрейт : 320 Кбит/сек
Каналы : 2 канала
Частота : 48,0 КГц
Метод сжатия : С потерями
Размер потока : 49,1 Мбайт (13%)
Default : Да
Forced : Нет






реклама партнёра


Вернуться к началу
 Профиль Отправить личное сообщение  
 
   Похожие торренты   Автор   Торрент   Размер 
В этой теме нет новых непрочитанных сообщений. Гриффины (14 сезон: 1-20 серии из 20) / Family Guy [2015, Мультсериал, Комедия, Пародия, WEB-DLRip, Профессиональный (многоголосый, закадровый) - Jaskier]

marya111

54 | 44

5.72 ГБ

В этой теме нет новых непрочитанных сообщений. Гриффины / Family Guy [15x01 из 20] ( Мультсериал, комедия, пародия, чёрный юмор, 2016) WEB-DLRip | OMSKBIRD

marya111

15 | 8

640.24 МБ

В этой теме нет новых непрочитанных сообщений. Гриффины / Family Guy [15x01-04, 07] (Мультфильм, комедия, 2016) HDTV-AVC | Filiza

marya111

44 | 35

961.7 МБ

В этой теме нет новых непрочитанных сообщений. Гриффины / Family Guy [15x01-02] (Мультфильм, комедия, 2016) HDTVRip | Filiza

marya111

1 | 3

380.79 МБ

В этой теме нет новых непрочитанных сообщений. Гриффины / Family Guy [15x01-03] (Мультфильм, комедия, 2016) HDTVRip-AVC | Filiza

marya111

19 | 7

585.53 МБ

В этой теме нет новых непрочитанных сообщений. Гриффины / Family Guy [14x01-12] [мультфильм, комедия, сатира, 2015] WEB-DL 720p [Jaskier]

Dracon

58 | 56

7.17 ГБ

В этой теме нет новых непрочитанных сообщений. Гриффины / Family Guy [15x01-04] (Мультфильм, комедия, 2016) HDTV 720p | Filiza

marya111

56 | 20

1.63 ГБ


Начать новую тему Ответить на тему  [ 1 сообщение ] 




Для Мосгорсуда, Роскомнадзора и рекламодателей:: mosgorsud-torrent[собачка]yandex.ru