Торрент файл
скачать торрент магнет ссылка Добавлен: 24 апр 2013, 01:09
Размер: 5.13 ГБ
Сидеров: 10
Личеров: 2
Автор

СообщениеДобавлено: 24 апр 2013, 01:09 

Не в сети
Супермодератор
Аватара пользователя
Дата регистрации:
15 фев 2012, 16:44
Возраст: 28
Спасибо: 6569 / 2137
Сообщения: 43777
Страна: Франция
Жанр:мультфильм
Продолжительность: 01:16:07
Год выпуска: 2012
Перевод: Профессиональный (дублированный)
Русские субтитры: нет
Режиссёр: Стефани Обье / Stéphane Aubier, Венсан Патар / Vincent Patar
Описание: Большая дружба начинается с малого… Она — маленькая мышка, он — огромный медведь. Она — ребенок, он — взрослый. Она мечтает быть художницей, хотя по правилам своего мира должна стать дантистом, он — музыкант и поэт, ведущий бездумную жизнь и никогда не имеющий куска хлеба на завтра. Они живут в разных мирах: для обитателей мышиного царства нет ничего более дикого, чем подружиться с «большим плохим медведем», да и его соседи вряд ли поймут, зачем водиться с мышкой. Но дружба и родство душ сродни настоящему волшебству. И какое этой парочке дело до условностей, разницы в размере, исторических предрассудков и культурных барьеров?


Качество: DVD9
Формат: DVD-video
Видео: PAL 16:9 (720x576) VBR Auto Pan&Scan, Auto Letterboxed; 25,000 fps; 8300 kbps
Аудио 1: Russian (Dolby AC3, 6 ch, 256 Кбит/сек, 48,0 КГц)
Аудио 2: French (Dolby AC3, 6 ch, 256 Кбит/сек, 48,0 КГц)
Аудио 3: Russian (DTS, 6 ch, 755 Кбит/сек, 48,0 КГц)
Субтитры:отсутствуют
Title: Jernest.i.Selestina.Prikljuchenija.myshki.i.medvedja.2012.D.DVD9Size: 5.13 Gb ( 5 380 416,00 KBytes ) - DVD-9Enabled regions: 1, 2, 3, 4, 5, 6, 7, 8

VTS_01 :Play Length: 00:00:10Video: PAL 16:9 (720x576) VBR, Auto Pan&Scan, Auto Letterboxed

VTS_02 :Play Length: 00:00:06Video: PAL 16:9 (720x576) VBR, Auto Pan&Scan, Auto Letterboxed

VTS_03 :Play Length: 01:16:07Video: PAL 16:9 (720x576) VBR, Auto Pan&Scan, Auto LetterboxedAudio:Not specified (Dolby AC3, 6 ch)Not specified (DTS, 6 ch)Not specified (Dolby AC3, 6 ch)Subtitles:Not specifiedNot specifiedNot specifiedNot specifiedNot specifiedNot specifiedNot specifiedNot specifiedNot specifiedNot specifiedNot specifiedNot specifiedNot specifiedNot specified

VTS_04 :Play Length: 00:00:05Video: PAL 16:9 (720x576) VBR, Auto Pan&Scan, Auto LetterboxedAudio:Not specified (Dolby AC3, 6 ch)Not specified (Dolby AC3, 6 ch)Not specified (Dolby AC3, 6 ch)Subtitles:Not specifiedNot specifiedNot specified

* Menus Information *

VIDEO_TS MenuVideo:PAL 16:9 (720x576) VBRAuto Pan&Scan, Auto LetterboxedEnglish Language Unit :Title Menu

VTS_01 MenuVideo:PAL 16:9 (720x576) VBRAuto Pan&Scan, Auto LetterboxedAudio:Not specified (Dolby AC3, 6 ch)English Language Unit :Root Menu

VTS_02 MenuVideo:PAL 4:3 (720x576) VBREnglish Language Unit :Root Menu

VTS_03 MenuVideo:PAL 4:3 (720x576) VBREnglish Language Unit :Root Menu

VTS_04 MenuVideo:PAL 4:3 (720x576) VBREnglish Language Unit :Root Menu
ОбщееПолное имя: F:Jernest.i.Selestina.Prikljuchenija.myshki.i.medvedja.2012.D.DVD9VIDEO_TSVTS_03_2.VOBФормат: MPEG-PSРазмер файла: 1024 МбайтПродолжительность: 15 м.Общий поток: 9504 Кбит/сек

ВидеоИдентификатор: 224 (0xE0)Формат: MPEG VideoВерсия формата: Version 2Профиль формата: Main@MainПараметр BVOP формата: ДаПараметр матрицы формата: По умолчаниюПараметры GOP формата: M=3, N=15Продолжительность: 15 м.Вид битрейта: ПеременныйБитрейт: 8300 Кбит/секШирина: 720 пикс.Высота: 576 пикс.Соотношение сторон: 16:9Частота кадров: 25,000 кадр/секСтандарт вещания: PALЦветовое пространство: YUVПодвыборка цветности: 4:2:0Битовая глубина: 8 битТип развёртки: ЧересстрочнаяПорядок развёртки: Верхнее поле первоеМетод сжатия: С потерямиБит/(Пиксели*Кадры): 0.801Размер потока: 867 Мбайт (85%)

Аудио #1Идентификатор: 189 (0xBD)-128 (0x80)Формат: AC-3Формат/Информация: Audio Coding 3Расширение режима: CM (complete main)Режим смешивания: DVD-VideoПродолжительность: 15 м.Вид битрейта: ПостоянныйБитрейт: 256 Кбит/секКаналы: 6 каналовРасположение каналов: Front: L C R, Side: L R, LFEЧастота: 48,0 КГцБитовая глубина: 16 битМетод сжатия: С потерямиЗадержка видео: -248 мс.Размер потока: 27,6 Мбайт (3%)

Аудио #2Идентификатор: 189 (0xBD)-130 (0x82)Формат: AC-3Формат/Информация: Audio Coding 3Расширение режима: CM (complete main)Режим смешивания: DVD-VideoПродолжительность: 15 м.Вид битрейта: ПостоянныйБитрейт: 256 Кбит/секКаналы: 6 каналовРасположение каналов: Front: L C R, Side: L R, LFEЧастота: 48,0 КГцБитовая глубина: 16 битМетод сжатия: С потерямиЗадержка видео: -248 мс.Размер потока: 27,6 Мбайт (3%)

Аудио #3Идентификатор: 189 (0xBD)-137 (0x89)Формат: DTSФормат/Информация: Digital Theater SystemsРежим смешивания: DVD-VideoПродолжительность: 15 м.Вид битрейта: ПостоянныйБитрейт: 755 Кбит/секКаналы: 6 каналовРасположение каналов: Front: L C R, Side: L R, LFEЧастота: 48,0 КГцБитовая глубина: 16 битМетод сжатия: С потерямиЗадержка видео: -365 мс.Размер потока: 81,3 Мбайт (8%)

ТекстИдентификатор: 189 (0xBD)-34 (0x22)Формат: RLEФормат/Информация: Run-length encodingРежим смешивания: DVD-Video

Меню

Релиз:




реклама партнёра


Вернуться к началу
 Профиль Отправить личное сообщение  
 
   Похожие торренты   Автор   Торрент   Размер 
В этой теме нет новых непрочитанных сообщений. Эрнест идет в тюрьму / Ernest Goes to Jail [комедия, криминал, семейный, 1990] BDRip, Avo

salma3

6 | 2

1.45 ГБ

В этой теме нет новых непрочитанных сообщений. Эрнест спасает Рождество / Ernest Saves Christmas [фэнтези, комедия, семейный, 1988] WEBRip 1080p, Avo

salma3

13 | 2

9.43 ГБ

В этой теме нет новых непрочитанных сообщений. Приключения медведя Бригсби / Brigsby Bear [Драма, комедия, 2017] HDRip, Avo

salma3

0 | 0

1.46 ГБ

В этой теме нет новых непрочитанных сообщений. Приключения медведя Бригсби / Brigsby Bear [Драма, комедия, 2017] BDRip 720p, Avo

salma3

67 | 31

5.38 ГБ

В этой теме нет новых непрочитанных сообщений. Неудержимые 3 / The Expendables 3 [Боевик, приключения, 2014] DVD9, Dub [Лицензия]

Dracon

126 | 27

6.2 ГБ

В этой теме нет новых непрочитанных сообщений. В поисках Дори / Finding Dory (Мультфильм, комедия, приключения, семейный, 2016) DVD9 | Custom

marya111

29 | 18

6.39 ГБ

В этой теме нет новых непрочитанных сообщений. Седьмой сын / Seventh Son (Сергей Бодров) [фэнтези, приключения, 2014] DVD9, Dub+Sub [Лицензия]

Dracon

0 | 1

5.86 ГБ


Начать новую тему Ответить на тему  [ 1 сообщение ] 




Для Мосгорсуда, Роскомнадзора и рекламодателей:: mosgorsud-torrent[собачка]yandex.ru