Торрент файл
скачать торрент магнет ссылка Добавлен: 17 апр 2013, 22:41
Размер: 1.46 ГБ
Сидеров: 4
Личеров: 2
Автор

СообщениеДобавлено: 17 апр 2013, 22:41 

В сети
Супермодератор
Аватара пользователя
Дата регистрации:
15 фев 2012, 16:44
Возраст: 28
Спасибо: 6594 / 2145
Сообщения: 44275
Страна: Франция, Канада, Бельгия
Студия: ARP Sélection, Caramel Film,Diabolo Films...
Жанр:мультфильм, мюзикл, комедия
Год выпуска: 2011
Продолжительность: 01:19:12

Перевод: Профессиональный (многоголосый, закадровый)
Оригинальная аудиодорожка: нет
Cубтитры: нет

Режиссер: Патрис Леконт / Patrice Leconte

В ролях: Бернар Алан, Изабель Спад, Кейси Моттет Кляйн, Изабель Джани, Лоран Жандрон, Пьер-Франсуа Мартен-Лаваль, Эрик Метайе, Жак Мату, Юрбен Канселье, Паскаль Парментье...

Описание: В неком городе, где жизнь невероятно уныла и невыносима, на протяжении многих поколений процветает магазин, который торгует всем необходимым для совершения самоубийств. Всё идёт замечательно до тех пор, пока в семье владельца этого магазина не рождается Алан — жизнелюбивый и весёлый малыш.






Исходник: Blu-ray 1080p
Качество: BDRip
Формат: AVI

Видео: 720x400 (16:9), 23.976 fps, XviD ~ 2182 kbps avg, 0.316 bit/pixel
Аудио: 48 kHz, AC3 6 ch, 448 kbps, русский

Раздача от:

Общее
Полное имя: Magazinchik.samoubiystv.2012.BDRip_[Youtracker]_by_avproh.avi
Формат: AVI
Формат/Информация: Audio Video Interleave
Размер файла: 1,46 Гбайт
Продолжительность: 1 ч. 19 м.
Общий поток: 2639 Кбит/сек
Программа кодирования: VirtualDubModRus 1.5.10.2 (build 2542/release)
Библиотека кодирования: VirtualDubMod build 2542/release

Видео
Идентификатор: 0
Формат: MPEG-4 Visual
Профиль формата: Advanced Simple@L5
Параметр BVOP формата: 1
Параметр QPel формата: Нет
Параметр GMC формата: Без точки перехода
Параметр матрицы формата: Выборочная
Идентификатор кодека: XVID
Идентификатор кодека/Подсказка: XviD
Продолжительность: 1 ч. 19 м.
Битрейт: 2182 Кбит/сек
Ширина: 720 пикселей
Высота: 400 пикселей
Соотношение сторон: 16:9
Частота кадров: 23,976 кадра/сек
Цветовое пространство: YUV
Субдискретизация насыщенности: 4:2:0
Битовая глубина: 8 бит
Тип развёртки: Прогрессивная
Метод сжатия: С потерями
Бит/(Пиксели*Кадры): 0.316
Размер потока: 1,21 Гбайт (83%)
Библиотека кодирования: XviD 65

Аудио
Идентификатор: 1
Формат: AC-3
Формат/Информация: Audio Coding 3
Расширение режима: CM (complete main)
Параметр Endianness формата: Big
Идентификатор кодека: 2000
Продолжительность: 1 ч. 19 м.
Вид битрейта: Постоянный
Битрейт: 448 Кбит/сек
Каналы: 6 каналов
Расположение каналов: Front: L C R, Side: L R, LFE
Частота: 48,0 КГц
Битовая глубина: 16 бит
Метод сжатия: С потерями
Размер потока: 254 Мбайт (17%)
Выравнивание: Разделение по промежуткам
Продолжительность промежутка: 42мс. (1,00 видеокадр)
Время предзагрузки промежутка: 500мс.







реклама партнёра


Вернуться к началу
 Профиль Отправить личное сообщение  
 
   Похожие торренты   Автор   Торрент   Размер 
В этой теме нет новых непрочитанных сообщений. Библиотека Самоубийств / The Library Suicides [триллер, 2016] HDRip, Avo

salma3

64 | 9

945.13 МБ

В этой теме нет новых непрочитанных сообщений. Моана / Moana [мультфильм, мюзикл, фэнтези, комедия, 2016] BDRip 1080p, Dub+Sub [Лицензия]

salma3

425 | 68

9.85 ГБ

В этой теме нет новых непрочитанных сообщений. Моана / Moana [мультфильм, мюзикл, фэнтези, комедия, 2016] BDRip 720p, Dub+Sub [Лицензия]

salma3

129 | 16

4.8 ГБ

В этой теме нет новых непрочитанных сообщений. Моана / Moana [мультфильм, мюзикл, фэнтези, 2016] BDRip, Dub [Лицензия]

salma3

605 | 45

1.46 ГБ

В этой теме нет новых непрочитанных сообщений. Моана / Moana [мультфильм, мюзикл, фэнтези, 2016] BDRip-AVC, Dub+Sub [Лицензия]

salma3

542 | 95

2.91 ГБ

В этой теме нет новых непрочитанных сообщений. Тролли / Trolls [Мультфильм, мюзикл, фэнтези, 2016] BDRip, Dub [Лицензия]

salma3

579 | 86

1.46 ГБ

В этой теме нет новых непрочитанных сообщений. Тролли / Trolls [Мультфильм, мюзикл, фэнтези, 2016] BDRip 1080p, Dub+Sub [Лицензия]

salma3

62 | 10

10.5 ГБ


Начать новую тему Ответить на тему  [ 1 сообщение ] 




Для Мосгорсуда, Роскомнадзора и рекламодателей:: mosgorsud-torrent[собачка]yandex.ru