Торрент файл
скачать торрент магнет ссылка Добавлен: 31 мар 2013, 09:24
Размер: 4.61 ГБ
Сидеров: 20
Личеров: 2
Автор

СообщениеДобавлено: 31 мар 2013, 09:24 

Не в сети
Зам. Админа
Аватара пользователя
Дата регистрации:
02 дек 2010, 12:39
Спасибо: 12461 / 214
Сообщения: 27968


Год выхода: 2013
Жанр: Мультфильм, фантастика, комедия, приключения, семейный
Режиссер: Каллэн Брункер
В ролях: Брендан Фрейзер, Роб Кордри, Рики Джервэйс, Джонатан Морган Хейт, Джессика Альба, София Вергара, Пол Шеер, Джейсон Симпсон, Сара Джессика Паркер, Даг Абрахамс

О фильме:
На планете Бааб, в самом центре Вселенной, два брата делают всё возможное, чтобы защитить свою галактику. Они — полные противоположности. Если девиз Гарри — «сначала подумай, потом сделай», то отважный Скорч живет по закону «сила есть — ума не надо», что не мешает им слаженно работать. Но однажды они получают сигнал S.O.S. с опасной планеты…под названием Земля. Скорч, сломя голову, бросается на помощь, и, разумеется, влипает в неприятности. Только Гарри может вытащить его из «Зоны 51». Братья откроют множество головокружительных тайн, но смогут ли они сбежать с самой опасной планеты во Вселенной?



Страна: США, Канада
Студия: Blue Yonder Films, GRF Productions, Jon Shestack Productions, Protocol Pictures, Rainmaker Entertainment
Продолжительность: 01:29:15
Перевод: Дублированный [Лицензия]

Кодек: AVC
Качество: BDRip 1080p
Видео: 1920x816, 23.976 fps, 6602 kbps
Звук: AC3, 48 kHz, 6 ch, 640 kbps

Семпл

General
Unique ID: 198923078557581199983137269101279532717 (0x95A730FD1FE20FD5B5CA2ACDB0C356AD)
Complete name: F:Загрузки µTorrentPobeg.s.planety.Zemlja.2013.D.BDRip.1080p.mkv
Format: Matroska
Format version: Version 4 / Version 2
File size: 4.61 GiB
Duration: 1h 29mn
Overall bit rate: 7 389 Kbps
Encoded date: UTC 2013-03-30 17:03:54
Writing application: mkvmerge v6.1.0 ('Old Devil') built on Mar2 2013 14:32:37
Writing library: libebml v1.3.0 + libmatroska v1.4.0

Video
ID: 1
Format: AVC
Format/Info: Advanced Video Codec
Format profile: High@L4.1
Format settings, CABAC: Yes
Format settings, ReFrames: 5 frames
Codec ID: V_MPEG4/ISO/AVC
Duration: 1h 29mn
Bit rate: 6 602 Kbps
Width: 1 920 pixels
Height: 816 pixels
Display aspect ratio: 2.35:1
Frame rate: 23.976 fps
Color space: YUV
Chroma subsampling: 4:2:0
Bit depth: 8 bits
Scan type: Progressive
Bits/(Pixel*Frame): 0.176
Stream size: 4.12 GiB (89%)
Writing library: x264 core 130 r2273 b3065e6
Encoding settings: cabac=1 / ref=5 / deblock=1:-1:-1 / analyse=0x3:0x113 / me=dia / subme=1 / psy=1 / psy_rd=1.00:0.15 / mixed_ref=1 / me_range=16 / chroma_me=1 / trellis=1 / 8x8dct=1 / cqm=0 / deadzone=21,11 / fast_pskip=1 / chroma_qp_offset=-1 / threads=12 / lookahead_threads=2 / sliced_threads=0 / nr=0 / decimate=1 / interlaced=0 / bluray_compat=0 / constrained_intra=0 / bframes=3 / b_pyramid=2 / b_adapt=1 / b_bias=0 / direct=1 / weightb=1 / open_gop=0 / weightp=2 / keyint=250 / keyint_min=24 / scenecut=40 / intra_refresh=0 / rc_lookahead=40 / rc=crf / mbtree=1 / crf=18.0 / qcomp=0.60 / qpmin=0 / qpmax=69 / qpstep=4 / ip_ratio=1.40 / aq=1:1.00
Language: Russian
Default: Yes
Forced: No

Audio
ID: 2
Format: AC-3
Format/Info: Audio Coding 3
Mode extension: CM (complete main)
Format settings, Endianness: Big
Codec ID: A_AC3
Duration: 1h 29mn
Bit rate mode: Constant
Bit rate: 640 Kbps
Channel(s): 6 channels
Channel positions: Front: L C R, Side: L R, LFE
Sampling rate: 48.0 KHz
Bit depth: 16 bits
Compression mode: Lossy
Stream size: 409 MiB (9%)
Language: Russian
Default: Yes
Forced: No





реклама партнёра


Вернуться к началу
 Профиль  
 
   Похожие торренты   Автор   Торрент   Размер 
В этой теме нет новых непрочитанных сообщений. Белка и Стрелка: Лунные приключения [мультфильм, комедия, приключения, семейный, 2013] BDRip 1080p | [Лицензия]

Dracon

64 | 4

3.88 ГБ

В этой теме нет новых непрочитанных сообщений. Приключения мистера Пибоди и Шермана / Mr. Peabody & Sherman [Мультфильм, Фантастика, Комедия, Приключения, Семейный, 2014] BDRip 1080p, Dub+Sub [лицензия | 3D-Video]

Dracon

140 | 9

9.22 ГБ

В этой теме нет новых непрочитанных сообщений. Дом / Home (Тим Джонсон) [мультфильм, фантастика, фэнтези, комедия, приключения, семейный, 2015] BDRip 1080p, Dub+Sub [лицензия]

Dracon

2 | 0

7.1 ГБ

В этой теме нет новых непрочитанных сообщений. Холодное Сердце / Frozen[Мультфильм, фэнтези, комедия, приключения, семейный, 2013] BDRip 1080p, Dub+Sub [Лицензия]

Dracon

667 | 22

5.89 ГБ

В этой теме нет новых непрочитанных сообщений. Дом / Home (Тим Джонсон) [мультфильм, фантастика, фэнтези, комедия, приключения, семейный, 2015] BDRip 1080p, Dub+Sub [3D-Video | Лицензия]

Dracon

1047 | 138

8.84 ГБ

В этой теме нет новых непрочитанных сообщений. Дом / Home (Тим Джонсон) [мультфильм, фантастика, фэнтези, комедия, приключения, семейный, 2015] BDRip 1080p, Dub+Sub [3D-Video | Лицензия]

Dracon

362 | 14

9.53 ГБ

В этой теме нет новых непрочитанных сообщений. Холодное сердце / Frozen [Мультфильм, фэнтези, комедия, приключения, семейный, 2013] BDRip 1080p, Dub+Sub [Лицензия | 3D-Video]

Dracon

436 | 24

6.23 ГБ


Начать новую тему Ответить на тему  [ 1 сообщение ] 




Для Мосгорсуда, Роскомнадзора и рекламодателей:: mosgorsud-torrent[собачка]yandex.ru