Торрент файл
скачать торрент магнет ссылка Добавлен: 02 мар 2013, 13:59
Размер: 9.84 ГБ
Сидеров: 7
Личеров: 2
Автор

СообщениеДобавлено: 02 мар 2013, 13:59 

Не в сети
Зам. Админа
Аватара пользователя
Дата регистрации:
02 дек 2010, 12:39
Спасибо: 12461 / 214
Сообщения: 27968

Год выпуска: 2012
Жанр:Мультфильм
Выпущено: США, Walt Disney Animation Studios
Режиссер: Рич Мур
В ролях: Джон Си Райли, Джек МакБрайер, Джейн Линч, Сара Силверман, Брэндон Т. Джексон, Стефани Скотт, Скотт Менвилль, Скайлар Эстин, Джек Эйнджел, Джеми Элман, Джералд С. Риверз

О фильме: Ральф — второстепенный персонаж восьмибитовой компьютерной игры, и ему надоело находиться в тени главного героя, мастера на все руки Феликса, который всегда появляется, чтобы «исправить» ситуацию! После десяти лет добросовестной работы в роли злодея, в течение которых все похвалы выпадали на долю Феликса, Ральф больше не хочет быть плохим. Он решает отправиться в путешествие по аркадным играм разных жанров, чтобы доказать всем, что и он тоже может быть героем. На своем пути Ральф встречает героев разных игр — хладнокровную сержанта Калхун из игры Hero’s Duty, оберегающую планету от нашествия инопланетных захватчиков, и сладкую на вид, но острую на язычок Сластену фон Дю, чье существование в гоночном симуляторе Sugar Rush внезапно оказывается под угрозой. Наконец-то Ральфу выпадает шанс показать, что он умеет не только разрушать!


Качество: BDRip (1080p)
Видео: MPEG-4 AVC, 12.0 Мбит/с, 1920x804
Аудио: Русский, украинский, английский (AC3, 6 ch, 640 Кбит/с)
Размер: 9.84 ГБ
Продолжительность: 01:41:16
Перевод: Дублированный [Лицензия с BD CEE]
Субтитры: Русские, английские, испанские, французские, украинские

Семпл
General
Unique ID : 200321776971957651535469019546800279504 (0x96B4922514CEEC6FBEE017DDBF9ACFD0)
Complete name : Wreck-It.Ralph.2012.1080p.BluRay.Rus.Ukr.Eng.Subs-IRONCLUB.mkv
Format : Matroska
Format version : Version 2
File size : 9.84 GiB
Duration : 1h 41mn
Overall bit rate : 13.9 Mbps
Movie name : IRONCLUB
Encoded date : UTC 2013-03-01 16:00:42
Writing application : mkvmerge v5.2.0 ('I can't explain') built on Dec 18 2011 18:12:03
Writing library : libebml v1.2.3 + libmatroska v1.3.0
Attachment : Yes / Yes

Video
ID : 1
Format : AVC
Format/Info : Advanced Video Codec
Format profile : High@L4.1
Format settings, CABAC : Yes
Format settings, ReFrames : 5 frames
Codec ID : V_MPEG4/ISO/AVC
Duration : 1h 41mn
Bit rate : 12.0 Mbps
Width : 1 920 pixels
Height : 804 pixels
Display aspect ratio : 2.40:1
Frame rate : 23.976 fps
Color space : YUV
Chroma subsampling : 4:2:0
Bit depth : 8 bits
Scan type : Progressive
Bits/(Pixel*Frame) : 0.324
Stream size : 8.29 GiB (84%)
Title : Wreck-It.Ralph.2012.1080p.BluRay.DTS.x264-Skazhutin
Writing library : x264 core 129 r2245kMod bc13772
Encoding settings : cabac=1 / ref=5 / deblock=1:-1:-1 / analyse=0x3:0x113 / me=umh / subme=11 / psy=1 / fade_compensate=0.00 / psy_rd=1.00:0.00 / mixed_ref=1 / me_range=48 / chroma_me=1 / trellis=2 / 8x8dct=1 / cqm=0 / deadzone=21,11 / fast_pskip=0 / chroma_qp_offset=-2 / threads=12 / lookahead_threads=2 / sliced_threads=0 / nr=0 / decimate=0 / interlaced=0 / bluray_compat=0 / constrained_intra=0 / bframes=8 / b_pyramid=2 / b_adapt=2 / b_bias=0 / direct=3 / weightb=1 / open_gop=0 / weightp=2 / keyint=250 / keyint_min=23 / scenecut=40 / intra_refresh=0 / rc_lookahead=40 / rc=2pass / mbtree=0 / bitrate=12000 / ratetol=1.0 / qcomp=0.65 / qpmin=0 / qpmax=69 / qpstep=4 / cplxblur=20.0 / qblur=0.5 / vbv_maxrate=50000 / vbv_bufsize=62500 / nal_hrd=none / ip_ratio=1.40 / pb_ratio=1.30 / aq=1:1.00
Language : English
Default : Yes
Forced : Yes
Matrix coefficients : BT.709-5, BT.1361, IEC 61966-2-4 709, SMPTE RP177

Audio #1
ID : 2
Format : AC-3
Format/Info : Audio Coding 3
Mode extension : CM (complete main)
Format settings, Endianness : Big
Codec ID : A_AC3
Duration : 1h 41mn
Bit rate mode : Constant
Bit rate : 640 Kbps
Channel(s) : 6 channels
Channel positions : Front: L C R, Side: L R, LFE
Sampling rate : 48.0 KHz
Bit depth : 16 bits
Compression mode : Lossy
Stream size : 463 MiB (5%)
Title : DD 5.1 @ 640 kbps - Dub, BD CEE
Language : Russian
Default : Yes
Forced : Yes

Audio #2
ID : 3
Format : AC-3
Format/Info : Audio Coding 3
Mode extension : CM (complete main)
Format settings, Endianness : Big
Codec ID : A_AC3
Duration : 1h 41mn
Bit rate mode : Constant
Bit rate : 640 Kbps
Channel(s) : 6 channels
Channel positions : Front: L C R, Side: L R, LFE
Sampling rate : 48.0 KHz
Bit depth : 16 bits
Compression mode : Lossy
Stream size : 463 MiB (5%)
Title : DD 5.1 @ 640 kbps - Dub, BD CEE
Language : Ukrainian
Default : No
Forced : No

Audio #3
ID : 4
Format : AC-3
Format/Info : Audio Coding 3
Mode extension : CM (complete main)
Format settings, Endianness : Big
Codec ID : A_AC3
Duration : 1h 41mn
Bit rate mode : Constant
Bit rate : 640 Kbps
Channel(s) : 6 channels
Channel positions : Front: L C R, Side: L R, LFE
Sampling rate : 48.0 KHz
Bit depth : 16 bits
Compression mode : Lossy
Stream size : 463 MiB (5%)
Title : DD 5.1 @ 640 kbps
Language : English
Default : No
Forced : No

Text #1
ID : 5
Format : UTF-8
Codec ID : S_TEXT/UTF8
Codec ID/Info : UTF-8 Plain Text
Title : Forced
Language : Russian
Default : No
Forced : No

Text #2
ID : 6
Format : UTF-8
Codec ID : S_TEXT/UTF8
Codec ID/Info : UTF-8 Plain Text
Language : Russian
Default : No
Forced : No

Text #3
ID : 7
Format : UTF-8
Codec ID : S_TEXT/UTF8
Codec ID/Info : UTF-8 Plain Text
Title : Forced
Language : Ukrainian
Default : No
Forced : No

Text #4
ID : 8
Format : UTF-8
Codec ID : S_TEXT/UTF8
Codec ID/Info : UTF-8 Plain Text
Language : Ukrainian
Default : No
Forced : No

Text #5
ID : 9
Format : UTF-8
Codec ID : S_TEXT/UTF8
Codec ID/Info : UTF-8 Plain Text
Language : English
Default : No
Forced : No

Text #6
ID : 10
Format : UTF-8
Codec ID : S_TEXT/UTF8
Codec ID/Info : UTF-8 Plain Text
Title : SDH
Language : English
Default : No
Forced : No

Text #7
ID : 11
Format : UTF-8
Codec ID : S_TEXT/UTF8
Codec ID/Info : UTF-8 Plain Text
Language : French
Default : No
Forced : No

Text #8
ID : 12
Format : UTF-8
Codec ID : S_TEXT/UTF8
Codec ID/Info : UTF-8 Plain Text
Language : Spanish
Default : No
Forced : No

Menu
00:00:00.000 : en:00:00:00.000
00:07:12.140 : en:00:07:12.140
00:16:34.910 : en:00:16:34.910
00:27:07.501 : en:00:27:07.501
00:37:25.952 : en:00:37:25.952
00:44:46.684 : en:00:44:46.684
00:48:45.130 : en:00:48:45.130
00:51:36.009 : en:00:51:36.009
00:58:56.032 : en:00:58:56.032
01:09:07.893 : en:01:09:07.893
01:13:39.623 : en:01:13:39.623
01:15:56.802 : en:01:15:56.802
01:18:52.978 : en:01:18:52.978
01:21:53.742 : en:01:21:53.742
01:27:25.365 : en:01:27:25.365
01:33:10.543 : en:01:33:10.543



Релиз от:




реклама партнёра


Вернуться к началу
 Профиль  
 
   Похожие торренты   Автор   Торрент   Размер 
В этой теме нет новых непрочитанных сообщений. Король Ральф / King Ralph [мелодрама, комедия, 1991] BDRip 1080p, Mvo

salma3

27 | 2

9.23 ГБ

В этой теме нет новых непрочитанных сообщений. Рио 2 / Rio 2 [Мультфильм, комедия, приключения, семейный, 2014] BDRip 1080p, Dub+Sub [Лицензия | 3D-Video]

Dracon

607 | 32

7.63 ГБ

В этой теме нет новых непрочитанных сообщений. Рио 2 / Rio 2 (Карлос Салдана) [2014, мультфильм, комедия, приключения, семейный, BDRip 1080p | Лицензия]

Dracon

596 | 14

9.24 ГБ

В этой теме нет новых непрочитанных сообщений. Почтальон Пэт / Postman Pat: The Movie [Мультфильм, Комедия, семейный, 2014] BDRip 1080p, Dub [Лицензия | 3D-Video]

Dracon

57 | 3

4.89 ГБ

В этой теме нет новых непрочитанных сообщений. Холодное Сердце / Frozen[Мультфильм, фэнтези, комедия, приключения, семейный, 2013] BDRip 1080p, Dub+Sub [Лицензия]

Dracon

667 | 22

5.89 ГБ

В этой теме нет новых непрочитанных сообщений. Спасти Санту / Saving Santa [мультфильм, мюзикл, комедия, семейный, 2013] BDRip 1080p, Dub [Лицензия]

Dracon

0 | 2

4.59 ГБ

В этой теме нет новых непрочитанных сообщений. Дом / Home (Тим Джонсон) [мультфильм, фантастика, фэнтези, комедия, приключения, семейный, 2015] BDRip 1080p, Dub+Sub [лицензия]

Dracon

2 | 0

7.1 ГБ


Начать новую тему Ответить на тему  [ 1 сообщение ] 




Для Мосгорсуда, Роскомнадзора и рекламодателей:: mosgorsud-torrent[собачка]yandex.ru