Торрент файл
скачать торрент магнет ссылка Добавлен: 01 мар 2013, 11:26
Размер: 2.53 ГБ
Сидеров: 0
Личеров: 2
Автор

СообщениеДобавлено: 01 мар 2013, 11:26 

Не в сети
Зам. Админа
Аватара пользователя
Дата регистрации:
02 дек 2010, 12:39
Спасибо: 12461 / 214
Сообщения: 27968

Год выхода: 2012
Жанр: мультфильм, комедия, приключения, семейный
Режиссер: Юн-сок Чхве / Yoon-suk Choi, Джон Кафка / John Kafka
В ролях: Памела Адлон, Роб Шнайдер, Джейн Линч, Стивен Болдуин, Уильям Болдуин, Тара Стронг, Мелани Гриффит, Юрий Ловенталь, Джессика Ди Чикко, Мелани Абрамофф

О фильме:
Эрни, его сестра Джулия и лучший друг Макс — неразлучная троица. Однажды, друзья без спроса залезли в странное устройство, которое сконструировал папа Макса, и случайно нажали кнопку запуска. Устройство оказалось машиной времени, и ребята очутились в Юрском периоде, прямо в гнезде Тираннозавра. Но вот радость: самка гигантского ящера приняла ребят за своих детенышей. Но не все, конечно, так безоблачно в мире хищников. Кое-кто мечтает полакомиться непрошеными гостями! Друзьям нужно немедленно уносить ноги и подумать о возвращении. Но как это сделать, если важная деталь машины исчезла?

Страна: США, Корея Южная
Студия: CJ Entertainment, Myriad Pictures, Toiion
Продолжительность: 01:21:55
Перевод: Дублированное [лицензия]

Формат: MKV
Качество: BDRip 720p
Видео: 3517 kb/s, 1280x692
Аудио: AC3, 640 Kb/s (6 ch)
Дополнительно: Сохранены оригинальные чаптеры как на Blu-Ray.

семпл
General
Unique ID : 245967905843400715805447731142985681493 (0xB90BB20DBE39A3AAA7EF2DBA22DE8A55)
Complete name : Dino.Time.2012.D.BDRip.720p.IRONCLUB.mkv
Format : Matroska
Format version : Version 2
File size : 2.53 GiB
Duration : 1h 25mn
Overall bit rate : 4 241 Kbps
Encoded date : UTC 2013-03-01 05:41:13
Writing application : mkvmerge v5.2.0 ('I can't explain') built on Dec 18 2011 18:12:03
Writing library : libebml v1.2.3 + libmatroska v1.3.0

Video
ID : 1
Format : AVC
Format/Info : Advanced Video Codec
Format profile : High@L4.1
Format settings, CABAC : Yes
Format settings, ReFrames : 9 frames
Codec ID : V_MPEG4/ISO/AVC
Duration : 1h 25mn
Bit rate : 3 517 Kbps
Width : 1 280 pixels
Height : 692 pixels
Display aspect ratio : 1.85:1
Frame rate : 23.976 fps
Color space : YUV
Chroma subsampling : 4:2:0
Bit depth : 8 bits
Scan type : Progressive
Bits/(Pixel*Frame) : 0.166
Stream size : 2.10 GiB (83%)
Title : Dino Time 2012 720p BluRay DD5.1 x264-IRONCLUB
Writing library : x264 core 129 r2245kMod bc13772
Encoding settings : cabac=1 / ref=9 / deblock=1:-1:-1 / analyse=0x3:0x113 / me=umh / subme=11 / psy=1 / fade_compensate=0.00 / psy_rd=0.65:0.00 / mixed_ref=1 / me_range=24 / chroma_me=1 / trellis=2 / 8x8dct=1 / cqm=0 / deadzone=21,11 / fast_pskip=0 / chroma_qp_offset=-2 / threads=12 / lookahead_threads=2 / sliced_threads=0 / nr=0 / decimate=1 / interlaced=0 / bluray_compat=0 / constrained_intra=0 / bframes=7 / b_pyramid=2 / b_adapt=2 / b_bias=0 / direct=3 / weightb=1 / open_gop=0 / weightp=2 / keyint=250 / keyint_min=23 / scenecut=40 / intra_refresh=0 / rc_lookahead=60 / rc=crf / mbtree=0 / crf=16.5000 / qcomp=0.70 / qpmin=0 / qpmax=69 / qpstep=4 / vbv_maxrate=50000 / vbv_bufsize=62500 / crf_max=0.0 / nal_hrd=none / ip_ratio=1.30 / pb_ratio=1.20 / aq=2:0.60
Language : English
Default : Yes
Forced : Yes

Audio
ID : 2
Format : AC-3
Format/Info : Audio Coding 3
Mode extension : CM (complete main)
Format settings, Endianness : Big
Codec ID : A_AC3
Duration : 1h 25mn
Bit rate mode : Constant
Bit rate : 640 Kbps
Channel(s) : 6 channels
Channel positions : Front: L C R, Side: L R, LFE
Sampling rate : 48.0 KHz
Bit depth : 16 bits
Compression mode : Lossy
Stream size : 391 MiB (15%)
Title : DD 5.1 @ 640 kbps
Language : Russian
Default : Yes
Forced : Yes

Menu
00:00:00.000 : en:00:00:00.000
00:07:22.692 : en:00:07:22.692
00:15:14.663 : en:00:15:14.663
00:22:44.363 : en:00:22:44.363
00:30:42.340 : en:00:30:42.340
00:38:53.956 : en:00:38:53.956
00:46:50.808 : en:00:46:50.808
00:54:41.236 : en:00:54:41.236
01:02:52.310 : en:01:02:52.310
01:10:23.219 : en:01:10:23.219
01:18:44.094 : en:01:18:44.094
Релиз от-




реклама партнёра


Вернуться к началу
 Профиль  
 
   Похожие торренты   Автор   Торрент   Размер 
В этой теме нет новых непрочитанных сообщений. Белка и Стрелка: Лунные приключения [мультфильм, комедия, приключения, семейный, 2013] BDRip 720p | [Лицензия]

Dracon

430 | 13

2.91 ГБ

В этой теме нет новых непрочитанных сообщений. Реальная белка / The Nut Job [мультфильм, комедия, приключения, семейный, 2014] BDRip 720p, Dub [Лицензия]

Dracon

530 | 16

2.91 ГБ

В этой теме нет новых непрочитанных сообщений. Рио 2 / Rio 2 ( Карлос Салдана) [2014, мультфильм, комедия, приключения, семейный, BDRip 720p | Лицензия]

Nickolas3435

398 | 10

6.12 ГБ

В этой теме нет новых непрочитанных сообщений. Холодное сердце / Frozen [Мультфильм, фэнтези, комедия, приключения, семейный, 2013] BDRip 720p, Dub+Sub [Лицензия]

Dracon

1219 | 26

4.37 ГБ

В этой теме нет новых непрочитанных сообщений. В поисках Дори / Finding Dory [мультфильм, комедия, приключения, семейный, 2016] BDRip 720p, Dub [Лицензия]

salma3

92 | 11

6.55 ГБ

В этой теме нет новых непрочитанных сообщений. Дом / Home (Тим Джонсон) [мультфильм, фантастика, фэнтези, комедия, приключения, семейный, 2015] BDRip 720p, Dub+Sub [лицензия]

Dracon

0 | 0

4.8 ГБ

В этой теме нет новых непрочитанных сообщений. Ледниковый период: Столкновение неизбежно / Ice Age: Collision Course [Мультфильм, комедия, приключения, семейный, 2016] BDRip 720p, Dub [Лицензия]

salma3

0 | 0

5.05 ГБ


Начать новую тему Ответить на тему  [ 1 сообщение ] 




Для Мосгорсуда, Роскомнадзора и рекламодателей:: mosgorsud-torrent[собачка]yandex.ru