Торрент файл
скачать торрент магнет ссылка Добавлен: 28 фев 2013, 09:51
Размер: 746.81 МБ
Сидеров: 95
Личеров: 10
Автор

СообщениеДобавлено: 28 фев 2013, 09:51 

Не в сети
Зам. Админа
Аватара пользователя
Дата регистрации:
02 дек 2010, 12:39
Спасибо: 12623 / 214
Сообщения: 28012
Страна: США, Корея Южная
Жанр:мультфильм, комедия, приключения, семейный
Год выпуска: 2012
Продолжительность: 01:21:55

Перевод: Профессиональный (дублированный)
Оригинальная аудиодорожка: нет
Cубтитры: нет

Режиссер: Юн-сок Чхве / Yoon-suk Choi, Джон Кафка / John Kafka

В ролях: Джейн Линч, Роб Шнайдер, Памела Адлон, Уильям Болдуин, Тара Стронг, Мелани Гриффит, Стивен Болдуин, Юрий Ловенталь, Джессика Ди Чикко, Мелани Абрамофф...

Роли дублировал: Владимир Рыбальченко

Описание: Эрни, его сестра Джулия и лучший друг Макс — неразлучная троица. Однажды, друзья без спроса залезли в странное устройство, которое сконструировал папа Макса, и случайно нажали кнопку запуска. Устройство оказалось машиной времени, и ребята очутились в Юрском периоде, прямо в гнезде Тираннозавра. Но вот радость: самка гигантского ящера приняла ребят за своих детенышей. Но не все, конечно, так безоблачно в мире хищников. Кое-кто мечтает полакомиться непрошеными гостями! Друзьям нужно немедленно уносить ноги и подумать о возвращении. Но как это сделать, если важная деталь машины исчезла?





Качество видео: DVDRip [DVD9 R5]
Формат видео: AVI

Видео: 720x400 (16:9), XViD1137 Кбит/сек25,000 fps / Бит/(Пиксели*Кадры): 0.158
Аудио: МР3Russian128 kbps2.0 / 48 kHz

Раздача от:

General
Complete name: D:Tracker2013Dinomama.2012Dinomama.2012.D.DVDRip.745MB_[Youtracker]_by_avproh.avi
Format: AVI
Format/Info: Audio Video Interleave
File size: 747 MiB
Duration: 1h 21mn
Overall bit rate: 1 274 Kbps
Writing application: VirtualDubMod 1.5.10.3 | http://www.virtualdub-fr.org || (build 2550/release)
Writing library: VirtualDubMod build 2550/release

Video
ID: 0
Format: MPEG-4 Visual
Format profile: Advanced Simple@L5
Format settings, BVOP: 1
Format settings, QPel: No
Format settings, GMC: No warppoints
Format settings, Matrix: Custom
Codec ID: XVID
Codec ID/Hint: XviD
Duration: 1h 21mn
Bit rate: 1 137 Kbps
Width: 720 pixels
Height: 400 pixels
Display aspect ratio: 16:9
Frame rate: 25.000 fps
Color space: YUV
Chroma subsampling: 4:2:0
Bit depth: 8 bits
Scan type: Progressive
Compression mode: Lossy
Bits/(Pixel*Frame): 0.158
Stream size: 666 MiB (89%)
Writing library: XviD 64

Audio
ID: 1
Format: MPEG Audio
Format version: Version 1
Format profile: Layer 3
Codec ID: 55
Codec ID/Hint: MP3
Duration: 1h 21mn
Bit rate mode: Constant
Bit rate: 128 Kbps
Channel(s): 2 channels
Sampling rate: 48.0 KHz
Compression mode: Lossy
Stream size: 75.0 MiB (10%)
Alignment: Aligned on interleaves
Interleave, duration: 40 ms (1.00 video frame)
Interleave, preload duration: 504 ms






реклама партнёра


Вернуться к началу
 Профиль  
 
   Похожие торренты   Автор   Торрент   Размер 
В этой теме нет новых непрочитанных сообщений. Альфа и Омега 6: Пещеры динозавров / Alpha and Omega: Dino Digs [мультфильм, фэнтези, комедия, приключения, семейный, 2016] WEB-DL 720р, Dub

salma3

348 | 55

1.57 ГБ

В этой теме нет новых непрочитанных сообщений. Аисты / Storks [мультфильм, фэнтези, комедия, приключения, семейный, 2016] BDRip-AVC, Dub [Лицензия]

salma3

376 | 111

2.18 ГБ

В этой теме нет новых непрочитанных сообщений. Застрявшие во времени / Frozen in Time (Алекс Люн) [Мультфильм, приключения, семейный, 2014] HDTVRip, avo

Dracon

22 | 2

666.79 МБ

В этой теме нет новых непрочитанных сообщений. Аисты / Storks [мультфильм, фэнтези, комедия, приключения, семейный, 2016] BDRip 1080p, Dub [Лицензия]

salma3

59 | 14

8.86 ГБ

В этой теме нет новых непрочитанных сообщений. Дом / Home (Тим Джонсон) [мультфильм, фантастика, фэнтези, комедия, приключения, семейный, 2015] Blu-Ray 1080p, Dub+Sub [Лицензия]

Dracon

37 | 38

42.4 ГБ

В этой теме нет новых непрочитанных сообщений. Дом / Home (Тим Джонсон) [мультфильм, фантастика, фэнтези, комедия, приключения, семейный, 2015] DVD5, Dub+Sub [Лицензия]

Dracon

3 | 0

4.36 ГБ

В этой теме нет новых непрочитанных сообщений. Кунг-фу Панда 3 / Kung Fu Panda 3 [мультфильм, боевик, комедия, приключения, семейный, 2016] Blu-Ray, Dub [Лицензия]

salma3

21 | 9

38.98 ГБ


Начать новую тему Ответить на тему  [ 1 сообщение ] 




Для Мосгорсуда, Роскомнадзора и рекламодателей:: mosgorsud-torrent[собачка]yandex.ru